Торрент файл
скачать торрент магнет ссылка Добавлен: 11 окт 2016, 00:24
Размер: 745.21 МБ
Сидеров: 1435
Личеров: 211
Статус: (salma3)
Автор

СообщениеДобавлено: 11 окт 2016, 00:24 

Не в сети
Дата регистрации:
28 сен 2016, 18:10
Спасибо: 62 / 0
Сообщения: 1040
Год выхода: 2016
Жанр: Фантастика, фэнтези, боевик, приключения
Режиссер: Дэвид Эйр

В ролях: Марго Робби, Уилл Смит, Джаред Лето, Джай Кортни, Кара Делевинь, Джей Эрнандес, Юэль Киннаман, Виола Дэвис, Адевале Акинойе-Агбаже, Скотт Иствуд ...

О фильме:
Правительство США создает специальную команду, состоящую из суперзлодеев для выполнения очень опасного задания. В обмен - они получают шанс на искупление. Но понадобиться ли он им? Ведь задание настолько сложное, что выжить в нем практически невозможно...



Страна: США
Продолжительность: 02:02:05
Перевод: Любительский (одноголосый, закадровый) - Solod.

Файл
Кодек: XviD
Качество: WEBRip
Видео: 688x288 (2.39:1), 29.970 fps, XviD build 73 ~713 kbps avg, 0.13 bit/pixel
Звук: 48 kHz, MPEG Layer 3, 2 ch, ~128.00 kbps avg
Субтитры: Отсутствуют
Семпл
За Видео и аудио дорожки спасибо ultravadim
General
Complete name : E:Suicide.Squad.2016.WEBRip.by shkiper.avi
Format : AVI
Format/Info : Audio Video Interleave
File size : 745 MiB
Duration : 2h 2mn
Overall bit rate : 853 Kbps
Writing application : VirtualDubMod 1.5.10.3 | www.virtualdub-fr.org || (build 2550/release)
Writing library : VirtualDub build 35491/release
Video
ID : 0
Format : MPEG-4 Visual
Format profile : Advanced Simple@L5
Format settings, BVOP : 1
Format settings, QPel : No
Format settings, GMC : No warppoints
Format settings, Matrix : Custom
Codec ID : XVID
Codec ID/Hint : XviD
Duration : 2h 2mn
Bit rate : 714 Kbps
Width : 688 pixels
Height : 288 pixels
Display aspect ratio : 2.40:1
Frame rate : 29.970 (29970/1000) fps
Color space : YUV
Chroma subsampling : 4:2:0
Bit depth : 8 bits
Scan type : Progressive
Compression mode : Lossy
Bits/(Pixel*Frame) : 0.120
Stream size : 623 MiB (84%)
Writing library : XviD 73
Audio
ID : 1
Format : MPEG Audio
Format version : Version 1
Format profile : Layer 3
Codec ID : 55
Codec ID/Hint : MP3
Duration : 2h 2mn
Bit rate mode : Constant
Bit rate : 128 Kbps
Channel(s) : 2 channels
Sampling rate : 48.0 KHz
Compression mode : Lossy
Stream size : 112 MiB (15%)
Alignment : Aligned on interleaves
Interleave, duration : 33 ms (1.00 video frame)
Interleave, preload duration : 504 ms

Релиз от:




реклама партнёра


Вернуться к началу
 Профиль Отправить личное сообщение  
 
   Похожие торренты   Автор   Торрент   Размер 
В этой теме нет новых непрочитанных сообщений. Отряд самоубийц / Suicide Squad [фантастика, фэнтези, боевик, приключения, 2016] WEBRip 720p, avo

marya111

2382 | 104

3.32 ГБ

В этой теме нет новых непрочитанных сообщений. Поглощён Отряд самоубийц / Suicide Squad [фантастика, фэнтези, боевик, триллер, криминал, 2016] WEBRip 1080р, dub [Звук с TS] Данный торрент является блокированным, причина: поглощённый торрент

marya111

10026 | 1709

5.88 ГБ

В этой теме нет новых непрочитанных сообщений. Поглощён Отряд самоубийц / Suicide Squad [фантастика, боевик, триллер, комедия, криминал, приключения, 2016] WEBRip, dub [Звук с TS] Данный торрент является блокированным, причина: поглощённый торрент

marya111

6635 | 580

1.37 ГБ

В этой теме нет новых непрочитанных сообщений. Отряд самоубийц / Suicide Squad [фантастика, боевик, триллер, комедия, криминал, приключения, 2016] WEBRip] Dub [чистый звук]

salma3

588 | 2313

2.05 ГБ

В этой теме нет новых непрочитанных сообщений. Отряд самоубийц / Suicide Squad (фантастика, фэнтези, боевик, приключения, 2016) [Theatrical Cut] WEB-DL 720p | iTunes

marya111

1562 | 138

4.33 ГБ

В этой теме нет новых непрочитанных сообщений. Отряд самоубийц / Suicide Squad (Фантастика, фэнтези, боевик, приключения, 2016) Blu-Ray 1080p | 3D-Video | Лицензия

marya111

181 | 66

42.29 ГБ

В этой теме нет новых непрочитанных сообщений. Отряд самоубийц / Suicide Squad (фантастика, фэнтези, боевик, приключения, 2016) WEB-DLRip от Scarabey | Расширенная версия | A

marya111

679 | 66

2.18 ГБ


Начать новую тему Ответить на тему  [ 1 сообщение ] 




Для Мосгорсуда, Роскомнадзора и рекламодателей:: mosgorsud-torrent[собачка]yandex.ru