Торрент файл
скачать торрент магнет ссылка Добавлен: 11 окт 2016, 00:24
Размер: 1.37 ГБ
Сидеров: 4915
Личеров: 669
Статус: (salma3)
Автор

СообщениеДобавлено: 11 окт 2016, 00:24 

Не в сети
Дата регистрации:
28 сен 2016, 18:10
Спасибо: 60 / 0
Сообщения: 1019
Год выхода: 2016
Жанр: Боевик, драма
Режиссер: Джеймс Уоткинс

В ролях: Идрис Эльба, Ричард Мэдден, Келли Райлли, Шарлотта Ле Бон, Анатол Юсеф, Хорхе Леон Мартинес, Карл Фаррер, Хосе Гарсиа, Александр Купер, Эрик Эбони

О фильме:
Ловкий карманник Майкл Мэйсон привлекает внимание полиции и спецслужб, когда крадет сумку, содержащую гораздо больше, чем просто бумажник. На его след выходит дерзкий и резкий спецагент ЦРУ Шон Брайар. Вдвоем они становятся мишенью тайной преступной организации и в течение суток должны вывести злоумышленников на чистую воду.



Страна: Великобритания, Франция, США
Продолжительность: 01:31:42
Перевод: Профессиональный (полное дублирование)[iTunes]

Файл
Качество: HDRip
Формат: AVI
Кодек: XviD
Видео: 720x304 (2.35:1), 24 fps, XviD ~1741 kbps avg, 0.331 bit/pixel
Аудио: AC3, 48 kHz, 6 ch, ~384.00 kbps avg | русский | Профессиональный (полное дублирование)[iTunes]
Субтитры: Отсутствуют
Семпл
Общее
Полное имя : D:TorrentsЗавершенныеBastille.Day.2016.D.HDRip.avi
Формат : AVI
Формат/Информация : Audio Video Interleave
Размер файла : 1,37 Гбайт
Продолжительность : 1 ч. 31 м.
Общий поток : 2135 Кбит/сек
Название фильма : KPuTYe.mePY.2o16.D.HDRip.14OOMB
Программа кодирования : VirtualDubMod 1.5.10.2 (build 2540/release)
Формат оригинала/Имя : Movie
Видео
Идентификатор : 0
Формат : MPEG-4 Visual
Профиль формата : Advanced Simple@L5
Параметр BVOP формата : 2
Параметр QPel формата : Нет
Параметр GMC формата : Без точки перехода
Параметр матрицы формата : Выборочная
Идентификатор кодека : XVID
Идентификатор кодека/Подсказка : XviD
Продолжительность : 1 ч. 31 м.
Битрейт : 1741 Кбит/сек
Ширина : 720 пикселей
Высота : 304 пикселя
Соотношение сторон : 2,35:1
Частота кадров : 24,000 кадра/сек
Цветовое пространство : YUV
Субдискретизация насыщенности : 4:2:0
Битовая глубина : 8 бит
Тип развёртки : Прогрессивная
Метод сжатия : С потерями
Бит/(Пиксели*Кадры) : 0.331
Размер потока : 1,12 Гбайт (82%)
Библиотека кодирования : XviD 1.2.1 (UTC 2008-12-04)
Аудио
Идентификатор : 1
Формат : AC-3
Формат/Информация : Audio Coding 3
Расширение режима : CM (complete main)
Параметр Endianness формата : Big
Идентификатор кодека : 2000
Продолжительность : 1 ч. 31 м.
Вид битрейта : Постоянный
Битрейт : 384 Кбит/сек
Каналы : 6 каналов
Расположение каналов : Front: L C R, Side: L R, LFE
Частота : 48,0 КГц
Метод сжатия : С потерями
Размер потока : 252 Мбайт (18%)
Выравнивание : Разделение по промежуткам
Продолжительность промежутка : 42 мс. (1,00 видеокадр)
Время предзагрузки промежутка : 500 мс.




реклама партнёра


Вернуться к началу
 Профиль Отправить личное сообщение  
 
   Похожие торренты   Автор   Торрент   Размер 
В этой теме нет новых непрочитанных сообщений. Крутые меры / Bastille Day [боевик, драма, 2016] HDRip, Avo

salma3

5 | 0

1.45 ГБ

В этой теме нет новых непрочитанных сообщений. Крутые меры / Bastille Day [Боевик, драма, 2016] BDRemux 1080p, Avo

salma3

2 | 0

19.06 ГБ

В этой теме нет новых непрочитанных сообщений. Крутые меры / Bastille Day [Боевик, драма, 2016] BDRip 720p, Avo

salma3

0 | 0

4.92 ГБ

В этой теме нет новых непрочитанных сообщений. Все меры предосторожности / Extreme Prejudice [боевик, драма, криминал, вестерн, 1987] HDRip, 2Avo

salma3

23 | 0

1.48 ГБ

В этой теме нет новых непрочитанных сообщений. Восставший / Risen [боевик, драма, детектив, приключения, 2016] HDRip, Mvo [iTunes]

salma3

109 | 6

1.37 ГБ

В этой теме нет новых непрочитанных сообщений. Крутые парни / Крутые ребята / Крутые мужики / Tough Guys [криминал, комедия, 1986] WEB-DL 720p, Dub+Mvo+Sub

salma3

4 | 1

3.36 ГБ

В этой теме нет новых непрочитанных сообщений. Хроники мстителя / Vigilante Diaries [боевик, 2016] HDRip, Dub [iTunes]

salma3

564 | 272

1.37 ГБ


Начать новую тему Ответить на тему  [ 1 сообщение ] 




Для Мосгорсуда, Роскомнадзора и рекламодателей:: mosgorsud-torrent[собачка]yandex.ru