Торрент файл
скачать торрент магнет ссылка Добавлен: 10 окт 2016, 11:46
Размер: 2.85 ГБ
Сидеров: 0
Личеров: 0
Статус: (salma3)
Автор

СообщениеДобавлено: 10 окт 2016, 11:46 

Не в сети
Супермодератор
Аватара пользователя
Дата регистрации:
15 фев 2012, 16:44
Возраст: 27
Спасибо: 5130 / 2089
Сообщения: 17350
Год выхода: 2007
Жанр: ужасы, фантастика, триллер
Режиссер: Рой Найрим

В ролях: Джейсон Коннери, А.Дж. Кук, Джордж Стульц, Эшли Пелдон, Джозеф Сикора, Гвендолин Ео, Майкл Дорн, Джерри Л. Джексон, Джон МакКейн

О фильме:
13-го марта 1997 года было зарегестрированно знаменитое наблюдение НЛО на юго-западе Соедененных Штатов. Случай стал известен под название «Огни Феникса» и был засвидетельствован тысячами обычных граждан.



Страна: США
Студия: Ringleader Studios, Karza Productions Inc., Night Skies Productions LLC
Продолжительность: 01:24:20
Перевод: Профессиональный двухголосый
Файл
Кодек: x264
Качество: WEB-DL 720p
Видео: MPEG-4 AVC, 4007 Кбит/с, 1280x718, 23.976 кадр/с
Аудио #1: AC3, 2 ch, 448 Кбит/с | Русский
Аудио #2: AC3, 6 ch, 384 Кбит/с | Aнглийский
Общее
Уникальный идентификатор : 185981405228688614094020759536601023085 (0x8BEAB73AED7B8309B190C7943F46426D)
Полное имя : Night.Skies.2007.WEB-DL.720p.mkv
Формат : Matroska
Версия формата : Version 4 / Version 2
Размер файла : 2,85 Гбайт
Продолжительность : 1 ч. 24 м.
Общий поток : 4835 Кбит/сек
Название фильма : Night Skies
Дата кодирования : UTC 2016-10-08 17:47:08
Программа кодирования : mkvmerge v9.2.0 ('Photograph') 32bit
Библиотека кодирования : libebml v1.3.3 + libmatroska v1.4.4
Обложка : Yes
Attachments : cover.jpg
Видео
Идентификатор : 1
Формат : AVC
Формат/Информация : Advanced Video Codec
Профиль формата : High@L3.1
Параметр CABAC формата : Нет
Параметр ReFrames формата : 2 кадра
Идентификатор кодека : V_MPEG4/ISO/AVC
Продолжительность : 1 ч. 24 м.
Битрейт : 4007 Кбит/сек
Ширина : 1280 пикселей
Высота : 718 пикселей
Соотношение сторон : 16:9
Режим частоты кадров : Постоянный
Частота кадров : 23,976 (23976/1000) кадра/сек
Цветовое пространство : YUV
Субдискретизация насыщенности : 4:2:0
Битовая глубина : 8 бит
Тип развёртки : Прогрессивная
Бит/(Пиксели*Кадры) : 0.182
Размер потока : 2,36 Гбайт (83%)
Язык : English
Default : Да
Forced : Нет
Цветовой диапазон : Limited
Основные цвета : BT.709
Характеристики трансфера : BT.709
Коэффициенты матрицы : BT.709
Аудио #1
Идентификатор : 2
Формат : AC-3
Формат/Информация : Audio Coding 3
Расширение режима : CM (complete main)
Параметр Endianness формата : Big
Идентификатор кодека : A_AC3
Продолжительность : 1 ч. 23 м.
Вид битрейта : Постоянный
Битрейт : 448 Кбит/сек
Каналы : 2 канала
Расположение каналов : Front: L R
Частота : 48,0 КГц
Частота кадров : 31,250 кадров/сек (1536 spf)
Метод сжатия : С потерями
Размер потока : 266 Мбайт (9%)
Заголовок : DVO
Язык : Russian
Default : Да
Forced : Нет
Аудио #2
Идентификатор : 3
Формат : AC-3
Формат/Информация : Audio Coding 3
Расширение режима : CM (complete main)
Параметр Endianness формата : Big
Идентификатор кодека : A_AC3
Продолжительность : 1 ч. 24 м.
Вид битрейта : Постоянный
Битрейт : 384 Кбит/сек
Каналы : 6 каналов
Расположение каналов : Front: L C R, Side: L R, LFE
Частота : 48,0 КГц
Частота кадров : 31,250 кадров/сек (1536 spf)
Метод сжатия : С потерями
Размер потока : 232 Мбайт (8%)
Язык : English
Default : Нет
Forced : Нет
Меню
00:00:00.000 : en:Cross Country Travelers
00:07:50.000 : en:A Little Lost
00:15:32.000 : en:Just Some Things
00:22:38.000 : en:Emergency Situation
00:27:15.000 : en:Tension Tightens
00:33:47.000 : en:Bumps in the Night
00:44:16.000 : en:Going for Help
00:50:28.000 : en:"Is Someone Out There?"
00:58:08.000 : en:Face to Face
01:04:46.000 : en:Run for It
01:12:16.000 : en:Alien Lair
01:17:59.000 : en:Mysteriously Deserted


_________________



реклама партнёра


Вернуться к началу
 Профиль Отправить личное сообщение  
 
   Похожие торренты   Автор   Торрент   Размер 
В этой теме нет новых непрочитанных сообщений. Ночные небеса / Night Skies [ужасы, фантастика, триллер, 2007] WEB-DLRip, Dvo

salma3

51 | 13

1.46 ГБ

В этой теме нет новых непрочитанных сообщений. Ночные небеса / Night Skies [Ужасы, Триллер, Драма, 2007] DVDRip, Mvo

salma3

0 | 2

1.37 ГБ

В этой теме нет новых непрочитанных сообщений. Рухнувшие Небеса / Falling Skies [05x01-10 из 10] (Грег Биман, Холли Дэйл, Серджо Мимика-Геззан) [фантастика, боевик, триллер, 2015] WEB-DLRip 720p, Mvo [LostFilm]

Dracon

235 | 219

12.42 ГБ

В этой теме нет новых непрочитанных сообщений. Сошедшие с небес / Рухнувшие небеса / Falling Skies [S04] [Фантастика, боевик, триллер, 2014] WEB-DL 1080p, Mvo [LostFilm]

Dracon

156 | 66

21.31 ГБ

В этой теме нет новых непрочитанных сообщений. Рухнувшие Небеса / Сошедшие с небес / Falling Skies / 5 сезон 1-10 серия из 10 [фантастика, боевик, триллер, 2015] WEB-DLRip, Mvo [LostFilm]

salma3

1741 | 1391

5.2 ГБ

В этой теме нет новых непрочитанных сообщений. Сошедшие с небес / Рухнувшие небеса / Falling Skies / 4 сезон 1-12 серии из 12 [Фантастика, боевик, триллер, 2014] WEB-DLRip, Mvo [LostFilm]

salma3

450 | 98

5.44 ГБ

В этой теме нет новых непрочитанных сообщений. Рухнувшие Небеса / Falling Skies [05x01-10 из 10] (Грег Биман, Холли Дэйл, Серджо Мимика-Геззан) [фантастика, боевик, триллер, 2015] WEB-DLRip 1080p, Mvo [LostFilm]

Dracon

249 | 414

17.67 ГБ


Начать новую тему Ответить на тему  [ 1 сообщение ] 




Для Мосгорсуда, Роскомнадзора и рекламодателей:: mosgorsud-torrent[собачка]yandex.ru