Торрент файл
скачать торрент магнет ссылка Добавлен: 10 окт 2016, 11:44
Размер: 1.46 ГБ
Сидеров: 393
Личеров: 35
Статус: (salma3)
Автор

СообщениеДобавлено: 10 окт 2016, 11:44 

Не в сети
Супермодератор
Аватара пользователя
Дата регистрации:
15 фев 2012, 16:44
Возраст: 27
Спасибо: 5121 / 2089
Сообщения: 17281
Год выхода: 2016
Жанр: Драма
Режиссер: Оливер Паркер

В ролях: Сэм Клафлин, Эмилия Кларк, Ванесса Кирби, Эйлин Данвуди, Пабло Рэйбоулд, Гэбриэлль Дауни, Саманта Спиро, Брендан Койл, Дженна Коулман

О фильме:
Лу Кларк знает, сколько шагов от автобусной остановки до ее дома. Она знает, что ей очень нравится работа в кафе и что, скорее всего, она не любит своего бойфренда Патрика. Но Лу не знает, что вот-вот потеряет свою работу и что в ближайшем будущем ей понадобятся все силы, чтобы преодолеть свалившиеся на нее проблемы.
Уилл Трейнор знает, что сбивший его мотоциклист отнял у него желание жить. И он точно знает, что надо сделать, чтобы положить конец всему этому. Но он не знает, что Лу скоро ворвется в его мир буйством красок. И они оба не знают, что навсегда изменят жизнь друг друга.



Страна: США, Великобритания
Продолжительность: 01:50:14
Перевод: Профессиональный (полное дублирование)[BD CEE]

Файл
Качество: BDRip-AVC (исх. Me.Before.You.2016.REMUX.BluRay.1080p.AVC.DTS-HD.MA5.1-iFT)
Формат: MKV
Кодек: MPEG-4 AVC
Видео: 960x402 (2.40:1), 23,976 fps, MPEG-4 AVC ~1515 kbps avg, 0.164 bit/pixel
Аудио: AC3, 48 kHz, 6 ch, ~384.00 kbps avg | русский | Профессиональный (полное дублирование)[BD CEE]
Субтитры: Русские, английские
Семпл
Общее
Уникальный идентификатор : 220333196342976383643903622807589073844 (0xA5C2A14B7A4DB8E1BFAF10DC2AD5B3B4)
Полное имя : D:Me.Before.You.2016.D.BDRip.x264.Rus.mkv
Формат : Matroska
Версия формата : Version 4 / Version 2
Размер файла : 1,46 Гбайт
Продолжительность : 1 ч. 50 м.
Общий поток : 1900 Кбит/сек
Название фильма : До встречи с тобой / Me Before You (2016)
Дата кодирования : UTC 2016-10-09 04:10:57
Программа кодирования : mkvmerge v8.3.0 ('Over the Horizon') 64bit
Библиотека кодирования : libebml v1.3.1 + libmatroska v1.4.2
DURATION : 01:45:09.387000000
NUMBER_OF_FRAMES : 1640
NUMBER_OF_BYTES : 50210
_STATISTICS_WRITING_APP : mkvmerge v8.3.0 ('Over the Horizon') 64bit
_STATISTICS_WRITING_DATE_UTC : 2016-10-09 04:10:57
_STATISTICS_TAGS : BPS DURATION NUMBER_OF_FRAMES NUMBER_OF_BYTES
Видео
Идентификатор : 1
Формат : AVC
Формат/Информация : Advanced Video Codec
Профиль формата : High@L4.1
Параметр CABAC формата : Да
Параметр ReFrames формата : 10 кадров
Идентификатор кодека : V_MPEG4/ISO/AVC
Продолжительность : 1 ч. 50 м.
Битрейт : 1515 Кбит/сек
Ширина : 960 пикселей
Высота : 402 пикселя
Соотношение сторон : 2,40:1
Режим частоты кадров : Постоянный
Частота кадров : 23,976 кадра/сек
Цветовое пространство : YUV
Субдискретизация насыщенности : 4:2:0
Битовая глубина : 8 бит
Тип развёртки : Прогрессивная
Бит/(Пиксели*Кадры) : 0.164
Размер потока : 1,14 Гбайт (78%)
Заголовок : Me.Before.You.2016.D.BDRip.x264.Rus
Библиотека кодирования : x264 core 148 r2705+54 9f484c1 t_mod_Custom [8-bit@all X86_64]
Настройки программы : cabac=1 / ref=10 / deblock=1:-2:-2 / analyse=0x3:0x113 / me=umh / subme=10 / psy=1 / fade_compensate=0.00 / psy_rd=1.00:0.00 / mixed_ref=1 / me_range=32 / chroma_me=1 / trellis=2 / 8x8dct=1 / cqm=0 / deadzone=21,11 / fast_pskip=0 / chroma_qp_offset=-2 / threads=6 / lookahead_threads=1 / sliced_threads=0 / nr=0 / decimate=0 / interlaced=0 / bluray_compat=0 / constrained_intra=0 / fgo=0 / bframes=12 / b_pyramid=2 / b_adapt=2 / b_bias=0 / direct=3 / weightb=1 / open_gop=0 / weightp=2 / keyint=250 / keyint_min=23 / scenecut=40 / intra_refresh=0 / rc_lookahead=40 / rc=2pass / mbtree=0 / bitrate=1515 / ratetol=1.0 / qcomp=0.65 / qpmin=0:0:0 / qpmax=69:69:69 / qpstep=4 / cplxblur=20.0 / qblur=0.5 / vbv_maxrate=50000 / vbv_bufsize=62500 / nal_hrd=none / filler=0 / ip_ratio=1.35 / pb_ratio=1.30 / aq=3:0.90 / aq-sensitivity=10.00 / aq-factor=1.00:1.00:1.00 / aq2=0 / aq3=0
Язык : English
Default : Да
Forced : Нет
DURATION : 01:50:14.483000000
NUMBER_OF_FRAMES : 158589
NUMBER_OF_BYTES : 1251659037
_STATISTICS_WRITING_APP : mkvmerge v8.3.0 ('Over the Horizon') 64bit
_STATISTICS_WRITING_DATE_UTC : 2016-10-09 04:10:57
_STATISTICS_TAGS : BPS DURATION NUMBER_OF_FRAMES NUMBER_OF_BYTES
Аудио
Идентификатор : 2
Формат : AC-3
Формат/Информация : Audio Coding 3
Расширение режима : CM (complete main)
Параметр Endianness формата : Big
Идентификатор кодека : A_AC3
Продолжительность : 1 ч. 50 м.
Вид битрейта : Постоянный
Битрейт : 384 Кбит/сек
Каналы : 6 каналов
Расположение каналов : Front: L C R, Side: L R, LFE
Частота : 48,0 КГц
Метод сжатия : С потерями
Размер потока : 303 Мбайт (20%)
Заголовок : Dub | DD 5.1 @ 384 kbps - Blu Rya CEE
Язык : Russian
Default : Да
Forced : Нет
Текст #1
Идентификатор : 3
Формат : UTF-8
Идентификатор кодека : S_TEXT/UTF8
Идентификатор кодека/Информация : UTF-8 Plain Text
Заголовок : Forced
Язык : Russian
Default : Да
Forced : Нет
Текст #2
Идентификатор : 4
Формат : UTF-8
Идентификатор кодека : S_TEXT/UTF8
Идентификатор кодека/Информация : UTF-8 Plain Text
Заголовок : Full
Язык : Russian
Default : Нет
Forced : Нет
Текст #3
Идентификатор : 5
Формат : UTF-8
Идентификатор кодека : S_TEXT/UTF8
Идентификатор кодека/Информация : UTF-8 Plain Text
Заголовок : Full
Язык : English
Default : Нет
Forced : Нет
Меню
00:00:00.000 : en:Chapter 1
00:12:40.967 : en:Chapter 2
00:20:01.575 : en:Chapter 3
00:29:06.243 : en:Chapter 4
00:39:38.416 : en:Chapter 5
00:49:13.867 : en:Chapter 6
01:01:15.545 : en:Chapter 7
01:10:16.795 : en:Chapter 8
01:19:16.417 : en:Chapter 9
01:32:06.479 : en:Chapter 10
01:37:58.329 : en:Chapter 11
01:45:55.349 : en:Chapter 12


_________________



реклама партнёра


Вернуться к началу
 Профиль Отправить личное сообщение  
 
   Похожие торренты   Автор   Торрент   Размер 
В этой теме нет новых непрочитанных сообщений. До встречи с тобой / Me Before You [Драма, 2016] BDRip-AVC, Dub [Лицензия]

salma3

363 | 12

2.18 ГБ

В этой теме нет новых непрочитанных сообщений. До встречи с тобой / Me Before You [драма, 2016] BDRip, Dub [Лицензия]

marya111

0 | 0

2.18 ГБ

В этой теме нет новых непрочитанных сообщений. До встречи с тобой / Me Before You [драма, 2016] BDRip, Dub [Лицензия]

salma3

164 | 35

1.45 ГБ

В этой теме нет новых непрочитанных сообщений. До встречи с тобой / Me Before You [драма, 2016] BDRip 720p, Dub [Лицензия]

salma3

129 | 47

6.42 ГБ

В этой теме нет новых непрочитанных сообщений. Повторный До встречи с тобой / Me Before You (драма, 2016) BDRip от ExKinoRay | Лицензия Данный торрент является блокированным, причина: повторный торрент

marya111

0 | 0

1.46 ГБ

В этой теме нет новых непрочитанных сообщений. До встречи с тобой / Me Before You [драма, 2016] BDRip 1080p, Dub [Лицензия]

salma3

62 | 49

13.89 ГБ

В этой теме нет новых непрочитанных сообщений. До встречи с тобой / Me Before You [Драма, 2016] Blu-Ray, Dub [Лицензия]

marya111

25 | 16

30.94 ГБ


Начать новую тему Ответить на тему  [ 1 сообщение ] 




Для Мосгорсуда, Роскомнадзора и рекламодателей:: mosgorsud-torrent[собачка]yandex.ru