Торрент файл
скачать торрент магнет ссылка Добавлен: 08 окт 2016, 23:41
Размер: 2.18 ГБ
Сидеров: 148
Личеров: 49
Статус: (salma3)
Автор

СообщениеДобавлено: 08 окт 2016, 23:41 

Не в сети
Супермодератор
Аватара пользователя
Дата регистрации:
15 фев 2012, 16:44
Возраст: 27
Спасибо: 5132 / 2089
Сообщения: 17377
Перевод: Профессиональный (многоголосый, закадровый) [лицензия]
субтитры: русские, английские
Формат: BDRip-AVC, MKV, H.264, AC3
Страна: США
Режиссер: Джонатан Левин
Жанр: комедия
Продолжительность: 01:41:16
Год выпуска: 2015

В ролях: Джозеф Гордон-Левитт, Сет Роген, Энтони Маки, Джиллиан Белл, Лиззи Каплан, Майкл Шеннон, Хелен Йорк, Илана Глейзер, Аарон Хилл, Трэйси Морган

Описание:
История о веселых приключениях трех старых друзей, отправившихся на поиски лучшей рождественской вечеринки в Нью-Йорке…



Видео: 1104x460 (2.40:1), 23.976 fps, AVC MPEG-4 (H.264), ~2185 kbps, 0.179 bit/pixel
Аудио #1: Русский: 48 kHz, AC3 Dolby Digital, 3/2 (L,C,R,l,r) + LFE ch, ~448 kbps [Профессиональный (многоголосый, закадровый)]
Аудио #2: Английский: 48 kHz, AC3 Dolby Digital, 3/2 (L,C,R,l,r) + LFE ch, ~448 kbps [Оригинал]

Автор рипа: potroks
Общее
Уникальный идентификатор : 175317637404263660703463205908189580816 (0x83E4F2E24D906961BE09BC3E269C8E10)
Полное имя : Rozhdestvo.2015.DUAL.BDRip.x264.-HELLYWOOD.mkv
Формат : Matroska
Версия формата : Version 4 / Version 2
Длительность : 1 ч. 41 м.
Общий поток : 3020 Кбит/сек
Название фильма : The Night Before (2015) - HELLYWOOD
Дата кодирования : UTC 2016-02-22 15:20:10
Программа кодирования : mkvmerge v5.9.0 ('On The Loose') built on Dec 15 2012 16:39:58
Библиотека кодирования : libebml v1.3.0 + libmatroska v1.4.0

Видео
Идентификатор : 1
Формат : AVC
Формат/Информация : Advanced Video Кодек
Профиль формата :
Параметр CABAC формата : Да
Параметр ReFrames формата : 10 кадров
Идентификатор кодека : V_MPEG4/ISO/AVC
Длительность : 1 ч. 41 м.
Битрейт : 2185 Кбит/сек
Ширина : 1104 пикселя
Высота : 460 пикселей
Соотношение сторон : 2,40:1
Режим частоты кадров : Постоянный
Частота кадров : 23,976 кадра/сек
Цветовое пространство : YUV
Субдискретизация насыщенности : 4:2:0
Битовая глубина : 8 бит
Тип развёртки : Прогрессивная
Бит/(Пиксели*Кадры) : 0.179
Размер потока : 1,50 Гбайт (70%)
Заголовок : potroks
Библиотека кодирования : x264 core 148 r2665M a01e339
Настройки программы : cabac=1 / ref=10 / deblock=1:-2:-2 / analyse=0x3:0x133 / me=umh / subme=11 / psy=1 / psy_rd=1.00:0.10 / mixed_ref=1 / me_range=48 / chroma_me=1 / trellis=2 / 8x8dct=1 / cqm=0 / deadzone=21,11 / fast_pskip=0 / chroma_qp_offset=-3 / threads=9 / lookahead_threads=2 / sliced_threads=0 / nr=0 / decimate=1 / interlaced=0 / bluray_compat=0 / constrained_intra=0 / bframes=11 / b_pyramid=2 / b_adapt=2 / b_bias=0 / direct=3 / weightb=1 / open_gop=0 / weightp=2 / keyint=240 / keyint_min=23 / scenecut=40 / intra_refresh=0 / rc=2pass / mbtree=0 / bitrate=2185 / ratetol=1.0 / qcomp=0.70 / qpmin=0 / qpmax=69 / qpstep=4 / cplxblur=20.0 / qblur=0.5 / ip_ratio=1.40 / pb_ratio=1.30 / aq=1:0.80
Язык : English
Default : Да
Forced : Нет

Аудио #1
Идентификатор : 2
Формат : AC-3
Формат/Информация : Audio Coding 3
Расширение режима : CM (complete main)
Параметр Endianness формата : Big
Идентификатор кодека : A_AC3
Длительность : 1 ч. 41 м.
Вид битрейта : Постоянный
Битрейт : 448 Кбит/сек
Каналы : 6 каналов
Расположение каналов : Front: L C R, Side: L R, LFE
Частота : 48,0 КГц
Метод сжатия : С потерями
Задержка видео : 958 мс.
Размер потока : 324 Мбайт (15%)
Язык : Russian
Default : Да
Forced : Нет

Аудио #2
Идентификатор : 3
Формат : AC-3
Формат/Информация : Audio Coding 3
Расширение режима : CM (complete main)
Параметр Endianness формата : Big
Идентификатор кодека : A_AC3
Длительность : 1 ч. 41 м.
Вид битрейта : Постоянный
Битрейт : 448 Кбит/сек
Каналы : 6 каналов
Расположение каналов : Front: L C R, Side: L R, LFE
Частота : 48,0 КГц
Метод сжатия : С потерями
Размер потока : 324 Мбайт (15%)
Заголовок : Original | DD 5.1 @ 448 kbps
Язык : English
Default : Нет
Forced : Нет

Текст #1
Идентификатор : 4
Формат : UTF-8
Идентификатор кодека : S_TEXT/UTF8
Идентификатор кодека/Информация : UTF-8 Plain Text
Заголовок : Full
Default : Нет
Forced : Нет

Текст #2
Идентификатор : 5
Формат : UTF-8
Идентификатор кодека : S_TEXT/UTF8
Идентификатор кодека/Информация : UTF-8 Plain Text
Язык : English
Default : Нет
Forced : Нет

Меню
00:00:00.000 : :Chapter 01
00:05:23.406 : :Chapter 02
00:12:33.127 : :Chapter 03
00:18:38.033 : :Chapter 04
00:25:18.558 : :Chapter 05
00:31:53.703 : :Chapter 06
00:40:33.889 : :Chapter 07
00:47:15.833 : :Chapter 08
00:54:30.725 : :Chapter 09
01:01:08.122 : :Chapter 10
01:06:12.760 : :Chapter 11
01:12:11.035 : :Chapter 12
01:18:04.805 : :Chapter 13
01:23:56.531 : :Chapter 14
01:29:40.750 : :Chapter 15
01:34:53.562 : :Chapter 16





_________________



реклама партнёра


Вернуться к началу
 Профиль Отправить личное сообщение  
 
   Похожие торренты   Автор   Торрент   Размер 
В этой теме нет новых непрочитанных сообщений. Рождество / The Night Before [комедия, 2015] BDRip, dub [Лицензия]

marya111

39 | 6

2.18 ГБ

В этой теме нет новых непрочитанных сообщений. Рождество / The Night Before [Комедия, 2015] BDRip, Dub [Лицензия]

salma3

203 | 18

1.46 ГБ

В этой теме нет новых непрочитанных сообщений. Рождество / The Night Before (Джонатан Левин) [2015, комедия, BDRip-AVC] mvo

Nickolas3435

725 | 20

2.14 ГБ

В этой теме нет новых непрочитанных сообщений. Рождество / The Night Before (Джонатан Левин) [2015, комедия, BDRip-AVC] mvo

Nickolas3435

760 | 35

1.46 ГБ

В этой теме нет новых непрочитанных сообщений. Рождество / The Night Before [Комедия, 2015] HDRip, dvo

Dracon

552 | 11

1.46 ГБ

В этой теме нет новых непрочитанных сообщений. Очень странное рождество / Рождество с волшебными родителями / A Fairly Odd Christmas (Сэвидж Стив Холланд) [2012, фэнтези, комедия, семейный, SATRip] DUB

Nickolas3435

35 | 6

1.08 ГБ

В этой теме нет новых непрочитанных сообщений. Как раз под Рождество / Just in Time for Christmas [Комедия, мелодрама, 2015] WEB-DLRip, Mvo [iTunes]

salma3

1057 | 114

1.46 ГБ


Начать новую тему Ответить на тему  [ 1 сообщение ] 




Для Мосгорсуда, Роскомнадзора и рекламодателей:: mosgorsud-torrent[собачка]yandex.ru