Торрент файл
скачать торрент магнет ссылка Добавлен: 08 окт 2016, 00:08
Размер: 1.46 ГБ
Сидеров: 142
Личеров: 70
Статус: (salma3)
Автор

СообщениеДобавлено: 08 окт 2016, 00:08 

Не в сети
Супермодератор
Аватара пользователя
Дата регистрации:
15 фев 2012, 16:44
Возраст: 27
Спасибо: 5143 / 2090
Сообщения: 17478
Перевод: Профессиональный (полное дублирование) лицензия, субтитры : русские
Формат: BDRip-AVC, MKV, H.264, AC3
Страна: США
Режиссер: Джеймс Ван
Жанр: ужасы, триллер, детектив
Продолжительность: 02:14:01
Год выпуска: 2016

В ролях: Патрик Уилсон, Вера Фармига, Мэдисон Вульф, Фрэнсис О’Коннор, Лорен Эспозито, Саймон МакБерни, Мария Дойл, Кеннеди, Саймон Делани

Описание:
Супругов занесло в город Энфильд. На этот раз экстрасенсам довелось столкнуться с могущественным демоном, претендующим на звание владыки здешних мест. Скептически настроенные горожане начали подозревать друг друга в происшествиях, в их сердцах поселилась вражда и ненависть.



Видео: 912x380 (2.40:1), 23.976 fps, AVC MPEG-4 (H.264), ~1178 kbps, 0.142 bit/pixel
Аудио: 48 kHz, AC3 Dolby Digital, 6 ch, ~384 kbps

Автор рипа: potroks
Общее
Уникальный идентификатор : 251281531806480615588987200094512801035 (0xBD0B100A56C3BE10AF76B51CC7BAE50B)
Полное имя : D:\Zaklyatiye.2.2016.RUS.BDRip.x264.-HELLYWOOD.mkv
Формат : Matroska
Размер файла : 1,46 Гбайт
Продолжительность : 2 ч. 14 м.
Общий поток : 1561 Кбит/сек
Название фильма : The Conjuring 2 (2016)
Дата кодирования : UTC 2016-10-07 13:59:11
Программа кодирования : mkvmerge v5.9.0 ('On The Loose') built on Dec 15 2012 16:39:58
Библиотека кодирования : libebml v1.3.0 + libmatroska v1.4.0

Видео
Идентификатор : 1
Формат : AVC
Формат/Информация : Advanced Video Codec
Профиль формата :
Параметр CABAC формата : Да
Параметр ReFrames формата : 12 кадров
Идентификатор кодека : V_MPEG4/ISO/AVC
Продолжительность : 2 ч. 14 м.
Битрейт : 1178 Кбит/сек
Ширина : 912 пикс.
Высота : 380 пикс.
Соотношение сторон : 2,40:1
Частота кадров : 23,976 кадр/сек
Цветовое пространство : YUV
Подвыборка цветности : 4:2:0
Битовая глубина : 8 бит
Тип развёртки : Прогрессивная
Бит/(Пиксели*Кадры) : 0.142
Размер потока : 1,07 Гбайт (73%)
Заголовок : potroks
Библиотека кодирования : x264 core 146 r2538 121396c
Настройки программы : cabac=1 / ref=12 / deblock=1:-2:-2 / analyse=0x3:0x113 / me=umh / subme=11 / psy=1 / psy_rd=1.00:0.15 / mixed_ref=1 / me_range=48 / chroma_me=1 / trellis=2 / 8x8dct=1 / cqm=0 / deadzone=21,11 / fast_pskip=0 / chroma_qp_offset=-3 / threads=9 / lookahead_threads=2 / sliced_threads=0 / nr=0 / decimate=0 / interlaced=0 / bluray_compat=0 / constrained_intra=0 / bframes=13 / b_pyramid=2 / b_adapt=2 / b_bias=0 / direct=3 / weightb=1 / open_gop=0 / weightp=2 / keyint=240 / keyint_min=23 / scenecut=40 / intra_refresh=0 / rc_lookahead=150 / rc=2pass / mbtree=1 / bitrate=1178 / ratetol=1.0 / qcomp=0.70 / qpmin=0 / qpmax=69 / qpstep=4 / cplxblur=20.0 / qblur=0.5 / vbv_maxrate=14000 / vbv_bufsize=14000 / nal_hrd=none / filler=0 / ip_ratio=1.40 / aq=2:0.80
Язык : English

Аудио
Идентификатор : 2
Формат : AC-3
Формат/Информация : Audio Coding 3
Расширение режима : CM (complete main)
Идентификатор кодека : A_AC3
Продолжительность : 2 ч. 14 м.
Вид битрейта : Постоянный
Битрейт : 384 Кбит/сек
Каналы : 6 каналов
Расположение каналов : Front: L C R, Side: L R, LFE
Частота : 48,0 КГц
Битовая глубина : 16 бит
Метод сжатия : С потерями
Размер потока : 368 Мбайт (25%)
Заголовок : Dub | DD 5.1 @ 384 kbps - Blu-ray CEE
Язык : Russian

Текст #1
Идентификатор : 3
Формат : UTF-8
Идентификатор кодека : S_TEXT/UTF8
Идентификатор кодека/Информация : UTF-8 Plain Text
Заголовок : Forced
Язык : Russian

Текст #2
Идентификатор : 4
Формат : UTF-8
Идентификатор кодека : S_TEXT/UTF8
Идентификатор кодека/Информация : UTF-8 Plain Text
Заголовок : iTunes
Язык : Russian

Меню
00:00:00.000 : en:(01)00:00:00:000
00:08:24.670 : en:(02)00:08:24:670
00:18:40.701 : en:(03)00:18:40:701
00:28:34.211 : en:(04)00:28:34:211
00:40:01.398 : en:(05)00:40:01:398
00:48:46.840 : en:(06)00:48:46:840
01:02:14.313 : en:(07)01:02:14:313
01:09:29.664 : en:(08)01:09:29:664
01:21:55.868 : en:(09)01:21:55:868
01:29:26.485 : en:(10)01:29:26:485
01:38:53.469 : en:(11)01:38:53:469
01:48:15.363 : en:(12)01:48:15:363
02:03:10.507 : en:(13)02:03:10:507
02:07:36.814 : en:(14)02:07:36:814





_________________



реклама партнёра


Вернуться к началу
 Профиль Отправить личное сообщение  
 
   Похожие торренты   Автор   Торрент   Размер 
В этой теме нет новых непрочитанных сообщений. Заклятие 2 / The Conjuring 2 [Ужасы, триллер, детектив, 2016] BDRip-AVC, Dub [Лицензия]

salma3

84 | 34

2.66 ГБ

В этой теме нет новых непрочитанных сообщений. Заклятие 2 / The Conjuring 2 [ужасы, мистика, триллер, детектив, 2016] BDRip, Dub [Лицензия]

salma3

280 | 168

1.46 ГБ

В этой теме нет новых непрочитанных сообщений. Заклятие 2 / The Conjuring 2 [ужасы, мистика, триллер, детектив, 2016] BDRip 1080p, Dub+Sub [Лицензия]

salma3

4 | 13

14.68 ГБ

В этой теме нет новых непрочитанных сообщений. Заклятие 2 / The Conjuring 2 (ужасы, триллер, детектив, 2016) HDRip-AVC, Dub [Лицензия]

marya111

151 | 13

750.03 МБ

В этой теме нет новых непрочитанных сообщений. Заклятие 2 / The Conjuring 2 [Ужасы, мистика, драма, 2016] BDRip 720p, Dub [Лицензия]

marya111

116 | 5

7.99 ГБ

В этой теме нет новых непрочитанных сообщений. Повторный Заклятие 2 / The Conjuring 2 (Ужасы, мистика, драма, 2016) BDRip 1080p от New-Team | Лицензия Данный торрент является блокированным, причина: повторный торрент

marya111

0 | 0

14.45 ГБ

В этой теме нет новых непрочитанных сообщений. Заклятие 2 / The Conjuring 2 [Ужасы, 2016] HDRip, Dub [Лицензия]

salma3

125 | 59

1.46 ГБ


Начать новую тему Ответить на тему  [ 1 сообщение ] 




Для Мосгорсуда, Роскомнадзора и рекламодателей:: mosgorsud-torrent[собачка]yandex.ru
cron