Торрент файл
скачать торрент магнет ссылка Добавлен: 07 окт 2016, 01:27
Размер: 1.36 ГБ
Сидеров: 178
Личеров: 29
Статус: (salma3)
Автор

СообщениеДобавлено: 07 окт 2016, 01:27 

Не в сети
Дата регистрации:
28 сен 2016, 18:10
Спасибо: 63 / 0
Сообщения: 1040
Год выпуска: 2016
Страна: США
Жанр: боевик, военный, история

Перевод: Профессиональный многоголосый [iTunes]
Продолжительность: 01:40:34

Режиссер: Клаудио Фах

В ролях: Шон Патрик Флэнери (Captain Evan Blackburn), Том Сайзмор (Master Sergeant O'Malley), Кип Парду (Clarence Edward), Стивен Лэнг (General Emil F. Reinhardt), Рутгер Хауэр (Oskar Halminski), Эрик Ладин (Robert Sites), Йоханнес Херршманн (Adam von König), Павел Личникофф (Major Aleksandr Kulkov), Tom Padley (Theodore Dix), Юли Энгельбрехт (Elke Schroeder), Майкл Епп (Karl Krauss), Эндрю Байрон (Tolstoy)



Описание:
События разворачиваются ближе к концу Второй Мировой. В тыл к нацистам отправляют группу американо-британского спецназа, чтобы вызволить из лап врага очень важного бойца сопротивления...




Качество: WEB-DLRip-AVC
Формат: MKV
Видео: AVC, 1024x552 (1.85:1), 1558 kbps, 23,976 fps, 0,115 bpp
Аудио: русский / AC3 / 5.1 / 48 kHz / 384 kbps / |MVO, iTunes|
Сэмпл


Релиз от: by


General
Unique ID : 239742070958981732132366167058119287911 (0xB45CA4B1DC35EFA7BF5794EA59B66467)
Complete name : E:Beyond.Valkyrie.Dawn.of.the.Fourth.Reich.2016.WEB-DLRip-AVC.by.White Smoke.R.G.Resident.mkv
Format : Matroska
Format version : Version 4 / Version 2
File size : 1.36 GiB
Duration : 1 h 40 min
Overall bit rate : 1 943 kb/s
Movie name : Beyond.Valkyrie.Dawn.of.the.Fourth.Reich.2016.WEB-DLRip-AVC.by.White Smoke.R.G.Resident.mkv
Encoded date : UTC 2016-10-04 23:54:10
Writing application : mkvmerge v6.8.0 ('Theme for Great Cities') 64bit built on Mar 2 2014 21:34:26
Writing library : libebml v1.3.0 + libmatroska v1.4.1
Video
ID : 1
Format : AVC
Format/Info : Advanced Video Codec
Format profile : High@L4.1
Format settings, CABAC : Yes
Format settings, ReFrames : 12 frames
Codec ID : V_MPEG4/ISO/AVC
Duration : 1 h 40 min
Bit rate : 1 558 kb/s
Width : 1 024 pixels
Height : 552 pixels
Display aspect ratio : 1.85:1
Frame rate mode : Constant
Frame rate : 23.976 (24000/1001) FPS
Color space : YUV
Chroma subsampling : 4:2:0
Bit depth : 8 bits
Scan type : Progressive
Bits/(Pixel*Frame) : 0.115
Stream size : 1.07 GiB (78%)
Writing library : x264 core 148 r2638 7599210
Encoding settings : cabac=1 / ref=12 / deblock=1:-3:-3 / analyse=0x3:0x113 / me=umh / subme=9 / psy=1 / psy_rd=1.00:0.00 / mixed_ref=1 / me_range=32 / chroma_me=1 / trellis=2 / 8x8dct=1 / cqm=0 / deadzone=21,11 / fast_pskip=1 / chroma_qp_offset=-2 / threads=12 / lookahead_threads=3 / sliced_threads=0 / nr=0 / decimate=1 / interlaced=0 / bluray_compat=0 / constrained_intra=0 / bframes=12 / b_pyramid=2 / b_adapt=2 / b_bias=10 / direct=1 / weightb=0 / open_gop=0 / weightp=2 / keyint=230 / keyint_min=23 / scenecut=40 / intra_refresh=0 / rc_lookahead=40 / rc=2pass / mbtree=1 / bitrate=1558 / ratetol=1.0 / qcomp=0.85 / qpmin=0 / qpmax=69 / qpstep=4 / cplxblur=20.0 / qblur=0.5 / ip_ratio=1.40 / aq=1:1.00
Language : English
Default : Yes
Forced : No
Audio
ID : 2
Format : AC-3
Format/Info : Audio Coding 3
Mode extension : CM (complete main)
Format settings, Endianness : Big
Codec ID : A_AC3
Duration : 1 h 40 min
Bit rate mode : Constant
Bit rate : 384 kb/s
Channel(s) : 6 channels
Channel positions : Front: L C R, Side: L R, LFE
Sampling rate : 48.0 kHz
Frame rate : 31.250 FPS (1536 spf)
Compression mode : Lossy
Stream size : 276 MiB (20%)
Title : MVO iTunes
Language : Russian
Default : Yes
Forced : Yes




реклама партнёра


Вернуться к началу
 Профиль Отправить личное сообщение  
 
   Похожие торренты   Автор   Торрент   Размер 
В этой теме нет новых непрочитанных сообщений. Повторный После Валькирии: Рассвет четвертого Рейха (боевик, военный, история, 2016) WEB-DLRip | iTunes Данный торрент является блокированным, причина: повторный торрент

marya111

0 | 0

1.37 ГБ

В этой теме нет новых непрочитанных сообщений. После Валькирии: Рассвет четвертого Рейха / Beyond Valkyrie: Dawn of the 4th Reich [боевик, военный, история, 2016] WEB-DL 1080p, Mvo [iTunes]

salma3

291 | 22

4.24 ГБ

В этой теме нет новых непрочитанных сообщений. После Валькирии: Рассвет четвертого Рейха / Beyond Valkyrie: Dawn of the 4th Reich [боевик, военный, история, 2016] WEB-DL 720p, Mvo [iTunes]

salma3

153 | 16

3.09 ГБ

В этой теме нет новых непрочитанных сообщений. После Валькирии: Рассвет четвертого Рейха / Beyond Valkyrie: Dawn of the 4th Reich [боевик, военный, история, 2016] WEBDLRip, Mvo [iTunes]

salma3

320 | 120

1.37 ГБ

В этой теме нет новых непрочитанных сообщений. Простая история (Виктор Татарский) [2016, Боевик, военный, драма, WEB-DLRip]

marya111

47 | 5

749.93 МБ

В этой теме нет новых непрочитанных сообщений. Cнайпер: воин призрак / Sniper: Ghost Shooter [Боевик, драма, военный, 2016] WEB-DLRip-AVC, Mvo [iTunes]

salma3

186 | 20

2.3 ГБ

В этой теме нет новых непрочитанных сообщений. Простая история (Виктор Татарский) [2016, Боевик, военный, драма, мелодрама, WEB-DLRip]

marya111

1881 | 65

1.37 ГБ


Начать новую тему Ответить на тему  [ 1 сообщение ] 




Для Мосгорсуда, Роскомнадзора и рекламодателей:: mosgorsud-torrent[собачка]yandex.ru