Торрент файл
скачать торрент магнет ссылка Добавлен: 07 окт 2016, 01:25
Размер: 2.05 ГБ
Сидеров: 90
Личеров: 10
Статус: (salma3)
Автор

СообщениеДобавлено: 07 окт 2016, 01:25 

Не в сети
Дата регистрации:
28 сен 2016, 18:10
Спасибо: 60 / 0
Сообщения: 1019
Год выпуска: 2016
Страна: Таиланд
Жанр: драма, романтика, мистика, триллер, ужасы
Продолжительность: 01:52:31
Перевод: Любительский (двухголосый закадровый)
Русские субтитры: есть
Режиссер: Висит Сасанатиенг / Wisit Sasanatieng

В ролях: Плойчомпу - Адити, Пхонсакон Тосуван - Выпускник и другие

Описание: Два совершенно разных «детектива» объединяются, чтобы разгадать таинственное убийство, произошедшее полвека назад. Одним из детективов является Адити (Плойчомпу), старшеклассница школы-интерната. Второй детектив – дух выпускника этой школы (Пхонсакон Тосуван). На своём пути к истине Адити и её странный напарник сталкиваются с мужчинами и женщинами, а также мстительными духами, которые пытаются остановить их. Одновременно с поимкой преступника Адити должна выяснить истинную личность своего напарника: кем он был, почему умер и почему появился перед ней?
Релиз группы:
Доп. информация: Перевод осуществляли команды фансаб-группы "Black pearl" и фансаб-группы "LD-Asia"
Перевод,редакция, тайминг,оформление: Neriall, Black Angel
Озвучивание: Ворон и Wenlana
Смотреть обязательно с форсированными субтитрами
Прежде чем качать видео и комментировать, скачайте сэмпл и послушайте!

Качество: DVDRip-AVC - Сэмпл

Формат видео: mkv
Видео: 720x368 (1,957:1), 23,976 fps, x264 ~1835 kbps avg, 0.289 bit/pixel
Аудио: 48 kHz, AC3 Dolby Digital, 3/2 (L,C,R,l,r) + LFE ch, ~384 kbps (Русский)
Аудио: 48 kHz, AC3 Dolby Digital, 3/2 (L,C,R,l,r) + LFE ch, ~384 kbps (Тайский)
Формат субтитров: [форсированный(надписи) / полные]softsub (ass)


Dialogue: 0,0:00:50.60,0:00:59.62,Default,,0,0,0,,{i1}И наконец стал школой Святой Марии для девушек, где начинается наша история.{i0}
Dialogue: 0,0:01:31.73,0:01:34.52,Default,,0,0,0,,Нет! Я не делал этого! Нет!!!
Dialogue: 0,0:01:44.18,0:01:49.09,Default,,0,0,0,,Помоги мне... Помоги мне...
Dialogue: 0,0:02:02.60,0:02:05.28,Default,,0,0,0,,Помоги мне...
Dialogue: 0,0:02:10.30,0:02:14.45,Default,,0,0,0,,Не кричи! А то у нас будут проблемы.
Dialogue: 0,0:02:15.76,0:02:17.50,Default,,0,0,0,,Больше не буду ничего рассказывать.
Dialogue: 0,0:02:18.76,0:02:20.47,Default,,0,0,0,,Черт, монахиня идёт.
Dialogue: 0,0:02:26.32,0:02:28.28,Default,,0,0,0,,Кто только что кричал?
Dialogue: 0,0:02:29.27,0:02:30.31,Default,,0,0,0,,А, Фа?
Dialogue: 0,0:02:31.96,0:02:35.34,Default,,0,0,0,,Аа... монахиня, это новая ученица, Мон!
Dialogue: 0,0:02:36.60,0:02:38.98,Default,,0,0,0,,Мадемуазель Адити?
Dialogue: 0,0:02:39.90,0:02:41.59,Default,,0,0,0,,Почему ты кричала?
Dialogue: 0,0:02:45.23,0:02:47.76,Default,,0,0,0,,- Я не кричала.N- Это была ты!
Dialogue: 0,0:02:48.01,0:02:53.62,Default,,0,0,0,,- Мы можем подтвердить, верно?N- Да, это она....
Dialogue: 0,0:02:54.25,0:02:55.51,Default,,0,0,0,,Я не кричала.
Dialogue: 0,0:02:56.94,0:02:58.24,Default,,0,0,0,,Я не кричала.
Dialogue: 0,0:04:05.12,0:04:08.22,Default,,0,0,0,,Мон, почему ты здесь моешь пол?
Dialogue: 0,0:04:23.96,0:04:24.48,Default,,0,0,0,,Игуменья Ханна
Dialogue: 0,0:04:27.50,0:04:28.37,Default,,0,0,0,,Заходи!
Dialogue: 0,0:04:28.96,0:04:30.30,Default,,0,0,0,,Твоя тетя все также?
Dialogue: 0,0:04:33.41,0:04:35.09,Default,,0,0,0,,Очень жаль.
Dialogue: 0,0:04:36.74,0:04:44.00,Default,,0,0,0,,Я молюсь каждый день о чуде,Nно оно не происходит.
Dialogue: 0,0:04:47.54,0:04:49.06,Default,,0,0,0,,Ты должна понять,
Dialogue: 0,0:04:49.98,0:04:53.04,Default,,0,0,0,,я не была бы так строга к тебе,
Dialogue: 0,0:04:53.33,0:04:58.78,Default,,0,0,0,,но твоя тётя, зная что больна,Nпопросила меня позаботиться о тебе.
Dialogue: 0,0:05:00.90,0:05:04.62,Default,,0,0,0,,Так что не разочаровывай ее.
Dialogue: 0,0:05:06.98,0:05:08.13,Default,,0,0,0,,Хорошо, можешь идти.
Dialogue: 0,0:05:19.07,0:05:20.53,Default,,0,0,0,,Я действительно не делала этого.
Dialogue: 0,0:05:26.76,0:05:27.36,Default,,0,0,0,,Не хочу!
Dialogue: 0,0:05:29.33,0:05:30.32,Default,,0,0,0,,Я сказала тебе, что не хочу!
Dialogue: 0,0:05:33.76,0:05:35.30,Default,,0,0,0,,Почему продолжаешь беспокоить меня?
Dialogue: 0,0:05:39.60,0:05:40.46,Default,,0,0,0,,Нет!
Dialogue: 0,0:05:43.65,0:05:45.85,Default,,0,0,0,,Черт, сказала, что не хочу!
Формат : Matroska
Версия формата : Version 4 / Version 2
Размер файла : 2,05 Гбайт
Продолжительность : 1 ч. 52 м.
Общий поток : 2607 Кбит/сек
Дата кодирования : UTC 2016-10-01 15:30:21
Программа кодирования : mkvmerge v8.2.0 ('World of Adventure') 32bit
Библиотека кодирования : libebml v1.3.1 + libmatroska v1.4.2
Attachments : arialbd.ttf / arialbi.ttf / B52.ttf / gNl5ACtF.ttf
Видео
Идентификатор : 1
Формат : AVC
Формат/Информация : Advanced Video Codec
Профиль формата : High@L4.1
Параметр CABAC формата : Да
Параметр ReFrames формата : 10 кадров
Идентификатор кодека : V_MPEG4/ISO/AVC
Продолжительность : 1 ч. 52 м.
Битрейт : 1835 Кбит/сек
Ширина : 720 пикселей
Высота : 368 пикселей
Соотношение сторон : 1,957
Режим частоты кадров : Постоянный
Частота кадров : 23,976 (24000/1001) кадра/сек
Цветовое пространство : YUV
Субдискретизация насыщенности : 4:2:0
Битовая глубина : 8 бит
Тип развёртки : Прогрессивная
Бит/(Пиксели*Кадры) : 0.289
Размер потока : 1,44 Гбайт (70%)
Библиотека кодирования : x264 core 148 r2638 7599210
Настройки программы : cabac=1 / ref=10 / deblock=1:-2:-1 / analyse=0x3:0x133 / me=umh / subme=10 / psy=1 / psy_rd=1.00:0.00 / mixed_ref=1 / me_range=24 / chroma_me=1 / trellis=2 / 8x8dct=1 / cqm=0 / deadzone=21,11 / fast_pskip=0 / chroma_qp_offset=-2 / threads=6 / lookahead_threads=1 / sliced_threads=0 / nr=0 / decimate=0 / interlaced=0 / bluray_compat=0 / constrained_intra=0 / bframes=10 / b_pyramid=2 / b_adapt=2 / b_bias=0 / direct=3 / weightb=1 / open_gop=1 / weightp=2 / keyint=240 / keyint_min=23 / scenecut=40 / intra_refresh=0 / rc_lookahead=60 / rc=2pass / mbtree=0 / bitrate=1835 / ratetol=1.0 / qcomp=0.70 / qpmin=10 / qpmax=51 / qpstep=4 / cplxblur=20.0 / qblur=0.5 / vbv_maxrate=62500 / vbv_bufsize=78125 / nal_hrd=none / filler=0 / ip_ratio=1.40 / pb_ratio=1.30 / aq=1:1.00
Язык : English
Default : Да
Forced : Нет
Цветовой диапазон : Limited
Коэффициенты матрицы : BT.709
Аудио #1
Идентификатор : 2
Формат : AC-3
Формат/Информация : Audio Coding 3
Расширение режима : CM (complete main)
Параметр Endianness формата : Big
Идентификатор кодека : A_AC3
Продолжительность : 1 ч. 52 м.
Вид битрейта : Постоянный
Битрейт : 384 Кбит/сек
Каналы : 6 каналов
Расположение каналов : Front: L C R, Side: L R, LFE
Частота : 48,0 КГц
Частота кадров : 31,250 кадров/сек (1536 spf)
Метод сжатия : С потерями
Размер потока : 309 Мбайт (15%)
Заголовок : Ворон и Wenlana
Язык : Russian
Default : Да
Forced : Нет
Аудио #2
Идентификатор : 3
Формат : AC-3
Формат/Информация : Audio Coding 3
Расширение режима : CM (complete main)
Параметр Endianness формата : Big
Идентификатор кодека : A_AC3
Продолжительность : 1 ч. 52 м.
Вид битрейта : Постоянный
Битрейт : 384 Кбит/сек
Каналы : 6 каналов
Расположение каналов : Front: L C R, Side: L R, LFE
Частота : 48,0 КГц
Частота кадров : 31,250 кадров/сек (1536 spf)
Метод сжатия : С потерями
Размер потока : 309 Мбайт (15%)
Заголовок : Original
Язык : Thai
Default : Нет
Forced : Нет
Текст #1
Идентификатор : 4
Формат : ASS
Идентификатор кодека : S_TEXT/ASS
Идентификатор кодека/Информация : Advanced Sub Station Alpha
Продолжительность : 1 ч. 46 м.
Битрейт : 6 бит/сек
Count of elements : 44
Метод сжатия : Без потерь
Размер потока : 5,15 Кбайт (0%)
Заголовок : форсированный(надписи)
Язык : Russian
Default : Да
Forced : Да
Текст #2
Идентификатор : 5
Формат : ASS
Идентификатор кодека : S_TEXT/ASS
Идентификатор кодека/Информация : Advanced Sub Station Alpha
Продолжительность : 1 ч. 48 м.
Битрейт : 99 бит/сек
Count of elements : 1015
Метод сжатия : Без потерь
Размер потока : 79,4 Кбайт (0%)
Заголовок : Перевод: Фансаб-групп "Black pearl" и "LD-Asia"
Язык : Russian
Default : Нет
Forced : Нет




реклама партнёра


Вернуться к началу
 Профиль Отправить личное сообщение  
 
   Похожие торренты   Автор   Торрент   Размер 
В этой теме нет новых непрочитанных сообщений. Сомния / Before I Wake [ужасы, мистика, триллер, драма, детектив, 2016] WEB-DLRip, Dub [чистый звук]

salma3

2565 | 340

1.37 ГБ

В этой теме нет новых непрочитанных сообщений. Люцифер / Lucifer [02х01-10 из 22] (драма, ужасы, детектив, триллер, мистика, 2016) HDTVRip 720p | LE-Production

marya111

12 | 43

14.14 ГБ

В этой теме нет новых непрочитанных сообщений. Заклятие 2 / The Conjuring 2 [ужасы, мистика, триллер, детектив, 2016] BDRip, Dub [Лицензия]

salma3

280 | 168

1.46 ГБ

В этой теме нет новых непрочитанных сообщений. Заклятие 2 / The Conjuring 2 [ужасы, мистика, триллер, детектив, 2016] BDRip 1080p, Dub+Sub [Лицензия]

salma3

4 | 13

14.68 ГБ

В этой теме нет новых непрочитанных сообщений. Ходячие мертвецы / The Walking Dead / 7 сезон 1-07 серия из 16 [Мистика, триллер, ужасы, 2016] WEB-DLRip, Mvo [FOX]

salma3

728 | 4595

4.04 ГБ

В этой теме нет новых непрочитанных сообщений. Уиджи. Проклятие доски дьявола / Ouija: Origin of Evil [ужасы, мистика, триллер, 2016] HDTVRip, Mvo

salma3

894 | 125

1.37 ГБ

В этой теме нет новых непрочитанных сообщений. Ходячие мертвецы / The Walking Dead [07x01-07 из 16] (Мистика, триллер, ужасы, зомби, постапокалипсис, 2016) WEB-DLRip | IdeaFilm

marya111

63 | 247

4.7 ГБ


Начать новую тему Ответить на тему  [ 1 сообщение ] 




Для Мосгорсуда, Роскомнадзора и рекламодателей:: mosgorsud-torrent[собачка]yandex.ru