Торрент файл
скачать торрент магнет ссылка Добавлен: 03 окт 2016, 00:58
Размер: 1.46 ГБ
Сидеров: 46
Личеров: 7
Статус: (salma3)
Автор

СообщениеДобавлено: 03 окт 2016, 00:58 

Не в сети
Дата регистрации:
28 сен 2016, 18:10
Спасибо: 62 / 0
Сообщения: 1040
Страна: Швеция
Производство: RMV Film
Год выпуска: 2015
Жанр: ужасы, фэнтези, триллер, драма, детектив
Продолжительность: 02:18:10
Режиссер: Леван Акин
Авторы сценария: Леван Акин, Матс Страндберг
В ролях: Йозефин Асплунд, Хелена Энгстрём, Миранда Фридман, Ирма фон Платен, Ханна Асп, Леона Аксельсен, Рут Вега Фернандез
Описание: В маленьком шведском городке ученики местной школы готовятся к началу нового учебного года, ссорятся с друзьями, выясняют отношения с родителями… Жизнь идёт своим чередом, пока однажды в школьном туалете не обнаруживают тело подростка и над городом не встает кроваво-красная луна. Оказывается, город стал местом борьбы добра и зла и теперь только от немногих избранных зависит исход мировой битвы…



Перевод: Авторский (одноголосый, закадровый) | Юрий Живов
Субтитры: нет

Качество: BDRip | исходник Blu-Ray (FRA) - THE CIRCLE CHAPITRE 1 _ LES ÉLUES 2015 1080i BLURAY FRA AVC DTS HD MA
Формат: AVI
Видео кодек: XviD
Аудио кодек: AC3
Видео: 688x288 (2.40:1), 25.000 fps, XviD build 67 ~1 312 kbps avg
Аудио: 48.0 kHz, AC3 Dolby Digital, 2/0 (L,R) ch, ~192 kbps
Дата премьеры (мир): 10 февраля 2015

Релиз от: ylnian
Дополнительная информация: сборка дороги - rammzez
General
Полное имя : Cirkeln.2015.BDRip.1400-ylnian.avi
Формат : AVI
Формат/Информация : Audio Video Interleave
Размер файла : 1,46 Гбайт
Продолжительность : 2 ч. 18 м.
Общий поток : 1513 Кбит/сек
Программа кодирования : VirtualDubMod 1.5.10.2 (build 2540/release)
Библиотека кодирования : VirtualDubMod build 2540/release
Видео
Идентификатор : 0
Формат : MPEG-4 Visual
Профиль формата : Advanced Simple@L5
Параметр BVOP формата : 1
Параметр QPel формата : Нет
Параметр GMC формата : Без точки перехода
Параметр матрицы формата : Default (MPEG)
Идентификатор кодека : XVID
Идентификатор кодека/Подсказка : XviD
Продолжительность : 2 ч. 18 м.
Битрейт : 1312 Кбит/сек
Ширина : 688 пикселей
Высота : 288 пикселей
Соотношение сторон : 2,40:1
Частота кадров : 25,000 кадров/сек
Цветовое пространство : YUV
Субдискретизация насыщенности : 4:2:0
Битовая глубина : 8 бит
Тип развёртки : Прогрессивная
Метод сжатия : С потерями
Бит/(Пиксели*Кадры) : 0.265
Размер потока : 1,27 Гбайт (87%)
Библиотека кодирования : XviD 67
Аудио
Идентификатор : 1
Формат : AC-3
Формат/Информация : Audio Coding 3
Расширение режима : CM (complete main)
Параметр Endianness формата : Big
Идентификатор кодека : 2000
Продолжительность : 2 ч. 18 м.
Вид битрейта : Постоянный
Битрейт : 192 Кбит/сек
Каналы : 2 канала
Расположение каналов : Front: L R
Частота : 48,0 КГц
Частота кадров : 31,250 кадров/сек (1536 spf)
Метод сжатия : С потерями
Размер потока : 190 Мбайт (13%)
Выравнивание : Разделение по промежуткам
Продолжительность промежутка : 40 мс. (1,00 видеокадр)
Время предзагрузки промежутка : 500 мс.
Заголовок : AVO - RUS - Jivov




реклама партнёра


Вернуться к началу
 Профиль Отправить личное сообщение  
 
   Похожие торренты   Автор   Торрент   Размер 
В этой теме нет новых непрочитанных сообщений. Круг / Cirkeln [ужасы, фэнтези, триллер, драма, детектив, 2015] BDRip 720p, Avo

salma3

53 | 17

7.03 ГБ

В этой теме нет новых непрочитанных сообщений. Круг / Cirkeln (Леван Акин) [фэнтези, триллер, драма, детектив, 2015] HDRip, avo

Dracon

17 | 0

1.46 ГБ

В этой теме нет новых непрочитанных сообщений. Багровый пик / Crimson Peak [ужасы, фэнтези, триллер, драма, мелодрама, детектив, 2015] BDRip-AVC, Dub [лицензия]

salma3

203 | 23

2.18 ГБ

В этой теме нет новых непрочитанных сообщений. Багровый пик / Crimson Peak [ужасы, фэнтези, триллер, драма, мелодрама, детектив, 2015] BDRip 720p, Dub [iTunes]

Dracon

151 | 9

5.78 ГБ

В этой теме нет новых непрочитанных сообщений. Круг / Circle (Аарон Ханн, Марио Мисионе) [2015, ужасы, фантастика, триллер, драма, HDRip] avo

Nickolas3435

44 | 4

898.95 МБ

В этой теме нет новых непрочитанных сообщений. Сверхъестественное / Supernatural / 10 сезон 1-23 серии из 23 [ужасы, фэнтези, триллер, драма, детектив, 2014-2015] WEB-DLRip, Mvo [LostFilm]

salma3

1797 | 1630

8.88 ГБ

В этой теме нет новых непрочитанных сообщений. Богиня любви / Goddess of Love [ужасы, триллер, драма, детектив, 2015] BDRip 720p, Dvo

salma3

663 | 90

3.62 ГБ


Начать новую тему Ответить на тему  [ 1 сообщение ] 




Для Мосгорсуда, Роскомнадзора и рекламодателей:: mosgorsud-torrent[собачка]yandex.ru