Торрент файл
скачать торрент магнет ссылка Добавлен: 02 окт 2016, 11:38
Размер: 1.52 ГБ
Сидеров: 280
Личеров: 40
Статус: (salma3)
Автор

СообщениеДобавлено: 02 окт 2016, 11:38 

В сети
Супермодератор
Аватара пользователя
Дата регистрации:
15 фев 2012, 16:44
Возраст: 27
Спасибо: 5143 / 2090
Сообщения: 17495
Год выхода: 2016
Жанр: комедия, семейный
Режиссер: Сэвидж Стив Холланд

В ролях: Джейс Норман, Дэвис Кливлэнд, Хейли Тджу, Ноэль Йохансен, Чад Райли, Лиза Дурупт, Пол Белсито, Дариен Провост

О фильме:
Мэнни переехал в новую школу, он хочет, чтобы у него было много друзей. Его собака Руфус находит таинственный амулет, который Мэнни надевает Руфусу на шею. Вдруг Руфус превращается в мальчика! Мэнни не знает, что делать, поэтому он приводит Руфуса в школу. Из-за своих собачьих привычек Руфус становится самым популярным учеником…



Производство: США / Pacific Bay Entertainment, Pacific Bay Entertainment Canada
Продолжительность: 00:41:58
Перевод: профессиональный (полное дублирование) [Nickelodeon]

Файл
Качество: HDTVRip 1080p
Формат: MKV
Видео: MPEG-4 AVC, 1920x1080 (16:9), 25.000 fps, 5000 kbps, 0.096 bit/pixel
Аудио: русский, AC3 2.0, 48 kHz, 192 kbps
Формат : Matroska
Версия формата : Version 4 / Version 2
Размер файла : 1,52 Гбайт
Продолжительность : 41 м.
Режим общего битрейта : Постоянный
Общий поток : 5190 Кбит/сек
Дата кодирования : UTC 2016-07-04 12:26:54
Программа кодирования : mkvmerge v7.9.0 ('Birds') 64bit
Библиотека кодирования : libebml v1.3.1 + libmatroska v1.4.2
Видео
Идентификатор : 1
Формат : AVC
Формат/Информация : Advanced Video Codec
Профиль формата : High@L4.1
Параметр CABAC формата : Да
Параметр ReFrames формата : 3 кадра
Параметр GOP формата : M=3, N=25
Идентификатор кодека : V_MPEG4/ISO/AVC
Продолжительность : 41 м.
Вид битрейта : Постоянный
Битрейт : 5000 Кбит/сек
Ширина : 1920 пикселей
Высота : 1080 пикселей
Соотношение сторон : 16:9
Режим частоты кадров : Постоянный
Частота кадров : 25,000 кадров/сек
Стандарт вещания : PAL
Цветовое пространство : YUV
Субдискретизация насыщенности : 4:2:0
Битовая глубина : 8 бит
Тип развёртки : Прогрессивная
Бит/(Пиксели*Кадры) : 0.096
Размер потока : 1,43 Гбайт (94%)
Язык : English
Default : Да
Forced : Нет
Цветовой диапазон : Limited
Основные цвета : BT.709
Характеристики трансфера : BT.709
Коэффициенты матрицы : BT.709
Аудио
Идентификатор : 2
Формат : AC-3
Формат/Информация : Audio Coding 3
Расширение режима : CM (complete main)
Параметр Endianness формата : Big
Идентификатор кодека : A_AC3
Продолжительность : 41 м.
Вид битрейта : Постоянный
Битрейт : 192 Кбит/сек
Каналы : 2 канала
Расположение каналов : Front: L R
Частота : 48,0 КГц
Метод сжатия : С потерями
Размер потока : 57,6 Мбайт (4%)
Язык : Russian
Default : Да
Forced : Нет


_________________



реклама партнёра


Вернуться к началу
 Профиль Отправить личное сообщение  
 
   Похожие торренты   Автор   Торрент   Размер 
В этой теме нет новых непрочитанных сообщений. Призраки дома Хатэвэй / Haunted Hathaways / 1 сезон 1-26 серии из 26 [фэнтези, комедия, семейный, 2013] WEB-DLRip, Dub [Nickelodeon]

salma3

18 | 10

6.46 ГБ

В этой теме нет новых непрочитанных сообщений. Сын миллиардера / Billionaire Boy [Комедия, семейный, 2016] HDTVRip, avo

Dracon

67 | 5

994.13 МБ

В этой теме нет новых непрочитанных сообщений. Лео и Тиг [01 из 05] ( Мультфильм, комедия, семейный, полнометражный, 2016) HDTVRip от Generalfilm

marya111

0 | 0

150.58 МБ

В этой теме нет новых непрочитанных сообщений. Девять жизней / Nine Lives (Фэнтези, комедия, семейный, 2016) BDRip 1080p | iTunes

marya111

374 | 33

13.31 ГБ

В этой теме нет новых непрочитанных сообщений. Девять жизней / Nine Lives [Фэнтези, комедия, семейный, 2016] WEBRip 1080p, dub [Звук с TS]

marya111

809 | 60

2.71 ГБ

В этой теме нет новых непрочитанных сообщений. Великолепная Гилли Хопкинс / The Great Gilly Hopkins [Комедия, драма, семейный, 2016] BDRip 1080p, Mvo

salma3

347 | 76

6.87 ГБ

В этой теме нет новых непрочитанных сообщений. В поисках Дори / Finding Dory (мультфильм, комедия, приключения, семейный, 2016) BDRip 1080p | Лицензия

marya111

206 | 12

12.46 ГБ


Начать новую тему Ответить на тему  [ 1 сообщение ] 




Для Мосгорсуда, Роскомнадзора и рекламодателей:: mosgorsud-torrent[собачка]yandex.ru