Торрент файл
скачать торрент магнет ссылка Добавлен: 02 окт 2016, 01:16
Размер: 744 МБ
Сидеров: 58
Личеров: 5
Статус: (salma3)
Автор

СообщениеДобавлено: 02 окт 2016, 01:16 

Не в сети
Дата регистрации:
28 сен 2016, 18:10
Спасибо: 63 / 0
Сообщения: 1040
Год выхода: 2016
Жанр: ужасы, триллер
Режиссер: Даррен Линн Боусман

В ролях: Джо Андерсон, Джессика Лаундес, Лин Шэй, Майкл Паре, Дэйтон Калли, Брайан Бэтт, Джон МакКоннелл, Эйден Флауэрс, Джэй Хьюджули

О фильме: Журналистка Джулия ведёт расследование странных обстоятельств смерти своей сестры. Муж, одержимый жуткими видениями, убил жену и сына, а комната, где произошло преступление, исчезла. Джулия выясняет, что такое уже случалось раньше, а покупателем домов, где произошли убийства, всегда выступал человек по имени Джеремайя Крон. Следы таинственного покупателя приводят Джулию в затерявшееся на карте место, где из материалов пропавших комнат строится дом с призраками. Но самое страшное — не сам дом, а кому и для чего он нужен...



Страна: США
Студия: Pacific Bridge Pictures, Luminary Entertainment, Dark Web Productions
Продолжительность: 01:39:04
Перевод: Любительский (двухголосый, закадровый) | Levelin
Субтитры: Нет

Семпл

Файл
Кодек: XviD
Качество: HDRip
Видео: 688x288 (2.39:1), 23.976 fps, XviD build 73 ~848 kbps avg, 0.18 bit/pixel
Звук: 48 kHz, MPEG Layer 3, 2 ch, ~192.00 kbps avg
General
Complete name : Abattoir.2016.L2.HDRip.ot.Portablius.avi
Format : AVI
Format/Info : Audio Video Interleave
File size : 744 MiB
Duration : 1h 39mn
Overall bit rate : 1 050 Kbps
Writing application : VirtualDubMod 1.5.10.3 | www.virtualdub-fr.org || (build 2550/release)
Writing library : VirtualDubMod build 2550/release
Video
ID : 0
Format : MPEG-4 Visual
Format profile : Advanced Simple@L5
Format settings, BVOP : 1
Format settings, QPel : No
Format settings, GMC : No warppoints
Format settings, Matrix : Custom
Codec ID : XVID
Codec ID/Hint : XviD
Duration : 1h 39mn
Bit rate : 849 Kbps
Width : 688 pixels
Height : 288 pixels
Display aspect ratio : 2.40:1
Frame rate : 23.976 fps
Color space : YUV
Chroma subsampling : 4:2:0
Bit depth : 8 bits
Scan type : Progressive
Compression mode : Lossy
Bits/(Pixel*Frame) : 0.179
Stream size : 601 MiB (81%)
Writing library : XviD 73
Audio
ID : 1
Format : MPEG Audio
Format version : Version 1
Format profile : Layer 3
Codec ID : 55
Codec ID/Hint : MP3
Duration : 1h 39mn
Bit rate mode : Constant
Bit rate : 192 Kbps
Channel(s) : 2 channels
Sampling rate : 48.0 KHz
Compression mode : Lossy
Stream size : 136 MiB (18%)
Alignment : Aligned on interleaves
Interleave, duration : 42 ms (1.00 video frame)
Interleave, preload duration : 504 ms
Writing library : LAME3.99r
Encoding settings : -m s -V 4 -q 2 -lowpass 18.6 -b 192





реклама партнёра


Вернуться к началу
 Профиль Отправить личное сообщение  
 
   Похожие торренты   Автор   Торрент   Размер 
В этой теме нет новых непрочитанных сообщений. Абатуар / Abattoir [ужасы, триллер, 2016] BDRip, Dvo

salma3

1240 | 155

1.46 ГБ

В этой теме нет новых непрочитанных сообщений. Абатуар / Abattoir [ужасы, триллер, 2016] BDRip-AVC, Dvo

marya111

0 | 0

2.31 ГБ

В этой теме нет новых непрочитанных сообщений. Абатуар / Abattoir [ужасы, триллер, 2016] BDRip 1080p, Dvo

salma3

69 | 10

8.28 ГБ

В этой теме нет новых непрочитанных сообщений. Абатуар / Abattoir [ужасы, триллер, 2016] BDRip 720p, Dvo

salma3

147 | 18

4.15 ГБ

В этой теме нет новых непрочитанных сообщений. Я знаю,ты там / Know You’re in There 2016 [ужасы, триллер, 2016] HDRip, Avo

salma3

472 | 39

1.16 ГБ

В этой теме нет новых непрочитанных сообщений. Тишина / Hush [ужасы, триллер, 2016] HDRip, Avo

salma3

276 | 6

1.33 ГБ

В этой теме нет новых непрочитанных сообщений. Темнота / The Darkness [ужасы, триллер, 2016] HDRip, Dub [iTunes]

salma3

126 | 32

1.42 ГБ


Начать новую тему Ответить на тему  [ 1 сообщение ] 




Для Мосгорсуда, Роскомнадзора и рекламодателей:: mosgorsud-torrent[собачка]yandex.ru