Торрент файл
скачать торрент магнет ссылка Добавлен: 30 сен 2016, 23:21
Размер: 2.18 ГБ
Сидеров: 0
Личеров: 0
Статус: (salma3)
Автор

СообщениеДобавлено: 30 сен 2016, 23:21 

Не в сети
Дата регистрации:
28 сен 2016, 18:10
Спасибо: 62 / 0
Сообщения: 1040
Информация о фильме
Название: Идеальный мужчина
Оригинальное название: Un homme idéal
Год выхода: 2015
Жанр: триллер
Режиссер: Ян Гозлан
В ролях: Пьер Нинэ, Ана Жирардо, Андре Маркон, Валерия Кавалли, Тибо Винсон, Марк Барбе, Саша Мийович, Эрик Савен, Люк Энтони, Сория Муфаккир
О фильме:
Матьё мечтает стать писателем. Однако, несмотря на все усилия, издатели неизменно отвечают ему отказом, возвращая рукопись. Все меняется, когда однажды он находит потрепанный военный дневник умершего участника Алжирской войны, и решение приходит само собой…



Страна: Франция
Студия: 2425 Films, Wy Productions, TF1 Films Production
Продолжительность: 01:42:59
Перевод: Профессиональный многоголосый, авторский

Файл
Кодек: x264
Качество: BDRip-AVC (Ul.Hombre.Perfecto.2015.BLURAY)
Видео: MPEG-4 AVC, 1937 Кбит/с, 1024x424, 24 кадр/с
Аудио #1: АС3, 2 ch, 192 Кбит/с | Профессиональный многоголосый (1 канал)
Аудио #2: АС3, 6 ch, 448 Кбит/с | Авторский (Антон Алексеев)
Аудио #3: АС3, 6 ch, 448 Кбит/с | Французский
Субтитры: Русские, французские
x264 [info]: frame I:1404 Avg QP:12.69 size: 74753
x264 [info]: frame P:31987 Avg QP:15.10 size: 23278
x264 [info]: frame B:114923 Avg QP:17.17 size: 5612
x264 [info]: consecutive B-frames: 2.6% 3.4% 8.3% 21.0% 17.2% 26.3% 6.7% 3.6% 2.1% 1.6% 2.1% 1.9% 3.3%
__________________________________________________________________________________________________________________
Общее
Уникальный идентификатор : 223159525979384175814830244065963565151 (0xA7E2F61AC3BE4BB3BE3928FDABFA605F)
Полное имя : Un.Homme.Ideal.2015.BDRip-AVC.mkv
Формат : Matroska
Версия формата : Version 4 / Version 2
Размер файла : 2,18 Гбайт
Продолжительность : 1 ч. 42 м.
Общий поток : 3025 Кбит/сек
Название фильма : Un homme ideal
Дата кодирования : UTC 2016-09-28 17:00:43
Программа кодирования : mkvmerge v9.2.0 ('Photograph') 32bit
Библиотека кодирования : libebml v1.3.3 + libmatroska v1.4.4
Обложка : Yes
Attachments : cover.jpg
Release : Koenig
Видео
Идентификатор : 1
Формат : AVC
Формат/Информация : Advanced Video Codec
Профиль формата : High@L4.1
Параметр CABAC формата : Да
Параметр ReFrames формата : 10 кадров
Идентификатор кодека : V_MPEG4/ISO/AVC
Продолжительность : 1 ч. 42 м.
Битрейт : 1937 Кбит/сек
Ширина : 1024 пикселя
Высота : 424 пикселя
Соотношение сторон : 2,40:1
Режим частоты кадров : Постоянный
Частота кадров : 24,000 кадра/сек
Цветовое пространство : YUV
Субдискретизация насыщенности : 4:2:0
Битовая глубина : 8 бит
Тип развёртки : Прогрессивная
Бит/(Пиксели*Кадры) : 0.186
Размер потока : 1,39 Гбайт (64%)
Библиотека кодирования : x264 core 148 r2692 64f4e24
Настройки программы : cabac=1 / ref=10 / deblock=1:-3:-3 / analyse=0x3:0x133 / me=umh / subme=10 / psy=1 / psy_rd=1.00:0.05 / mixed_ref=1 / me_range=32 / chroma_me=1 / trellis=2 / 8x8dct=1 / cqm=0 / deadzone=21,11 / fast_pskip=0 / chroma_qp_offset=-3 / threads=3 / lookahead_threads=1 / sliced_threads=0 / nr=0 / decimate=1 / interlaced=0 / bluray_compat=0 / constrained_intra=0 / bframes=12 / b_pyramid=2 / b_adapt=2 / b_bias=0 / direct=3 / weightb=1 / open_gop=0 / weightp=2 / keyint=240 / keyint_min=24 / scenecut=40 / intra_refresh=0 / rc_lookahead=40 / rc=2pass / mbtree=1 / bitrate=1937 / ratetol=1.0 / qcomp=0.60 / qpmin=10 / qpmax=51 / qpstep=4 / cplxblur=20.0 / qblur=0.5 / vbv_maxrate=50000 / vbv_bufsize=62500 / nal_hrd=none / filler=0 / ip_ratio=1.40 / aq=1:1.00
Default : Да
Forced : Нет
Аудио #1
Идентификатор : 2
Формат : AC-3
Формат/Информация : Audio Coding 3
Расширение режима : CM (complete main)
Параметр Endianness формата : Big
Идентификатор кодека : A_AC3
Продолжительность : 1 ч. 42 м.
Вид битрейта : Постоянный
Битрейт : 192 Кбит/сек
Каналы : 2 канала
Расположение каналов : Front: L R
Частота : 48,0 КГц
Частота кадров : 31,250 кадров/сек (1536 spf)
Метод сжатия : С потерями
Размер потока : 141 Мбайт (6%)
Заголовок : MVO - 1 канал
Язык : Russian
Default : Да
Forced : Нет
Аудио #2
Идентификатор : 3
Формат : AC-3
Формат/Информация : Audio Coding 3
Расширение режима : CM (complete main)
Параметр Endianness формата : Big
Идентификатор кодека : A_AC3
Продолжительность : 1 ч. 42 м.
Вид битрейта : Постоянный
Битрейт : 448 Кбит/сек
Каналы : 6 каналов
Расположение каналов : Front: L C R, Side: L R, LFE
Частота : 48,0 КГц
Частота кадров : 31,250 кадров/сек (1536 spf)
Метод сжатия : С потерями
Размер потока : 330 Мбайт (15%)
Заголовок : AVO - Антон Алексеев
Язык : Russian
Default : Нет
Forced : Нет
Аудио #3
Идентификатор : 4
Формат : AC-3
Формат/Информация : Audio Coding 3
Расширение режима : CM (complete main)
Параметр Endianness формата : Big
Идентификатор кодека : A_AC3
Продолжительность : 1 ч. 42 м.
Вид битрейта : Постоянный
Битрейт : 448 Кбит/сек
Каналы : 6 каналов
Расположение каналов : Front: L C R, Side: L R, LFE
Частота : 48,0 КГц
Частота кадров : 31,250 кадров/сек (1536 spf)
Метод сжатия : С потерями
Размер потока : 330 Мбайт (15%)
Заголовок : Original
Язык : French
Default : Нет
Forced : Нет
Текст #1
Идентификатор : 5
Формат : UTF-8
Идентификатор кодека : S_TEXT/UTF8
Идентификатор кодека/Информация : UTF-8 Plain Text
Продолжительность : 1 ч. 34 м.
Битрейт : 60 бит/сек
Count of elements : 753
Размер потока : 42,4 Кбайт (0%)
Язык : Russian
Default : Да
Forced : Нет
Текст #2
Идентификатор : 6
Формат : UTF-8
Идентификатор кодека : S_TEXT/UTF8
Идентификатор кодека/Информация : UTF-8 Plain Text
Продолжительность : 1 ч. 42 м.
Битрейт : 33 бит/сек
Count of elements : 796
Размер потока : 24,9 Кбайт (0%)
Язык : French
Default : Нет
Forced : Нет
Меню
00:00:00.000 : en:
00:08:30.041 : en:
00:17:14.750 : en:
00:25:30.833 : en:
00:33:49.666 : en:
00:42:03.625 : en:
00:49:44.875 : en:
00:59:34.041 : en:
01:06:37.291 : en:
01:15:34.958 : en:
01:23:59.958 : en:
01:33:25.750 : en:




реклама партнёра


Вернуться к началу
 Профиль Отправить личное сообщение  
 
   Похожие торренты   Автор   Торрент   Размер 
В этой теме нет новых непрочитанных сообщений. Идеальный мужчина / Un homme idéal [Триллер, 2015] BDRip 1080p, Mvo+Avo+Sub

salma3

24 | 18

9.44 ГБ

В этой теме нет новых непрочитанных сообщений. Идеальный мужчина / Un homme idéal (Ян Гозлан) [триллер, 2015] HDRip, avo

Dracon

1451 | 50

1.36 ГБ

В этой теме нет новых непрочитанных сообщений. Идеальный муж / An Ideal Husband [мелодрама, комедия, 1999] BDRip, Mvo [R5]

salma3

130 | 7

1.45 ГБ

В этой теме нет новых непрочитанных сообщений. Мужчина, которого слишком сильно любили / L'homme qu'on aimait trop [драма, 2014] BDRip 720p, Mvo

Dracon

70 | 5

5.62 ГБ

В этой теме нет новых непрочитанных сообщений. Мужчина, которого слишком сильно любили / L'homme qu'on aimait trop [драма, 2014] BDRip 1080p, Mvo

Dracon

58 | 6

8.9 ГБ

В этой теме нет новых непрочитанных сообщений. Идеальный муж / An Ideal Husband [Комедия, мелодрама, 1999] BDRemux 1080p, Mvo+Sub

salma3

7 | 2

29.27 ГБ

В этой теме нет новых непрочитанных сообщений. Мужчина, которого слишком сильно любили / L'homme qu'on aimait trop [драма, 2014] HDRip, Mvo

Dracon

5 | 3

2.06 ГБ


Начать новую тему Ответить на тему  [ 1 сообщение ] 




Для Мосгорсуда, Роскомнадзора и рекламодателей:: mosgorsud-torrent[собачка]yandex.ru
cron