Торрент файл
скачать торрент магнет ссылка Добавлен: 30 сен 2016, 00:49
Размер: 2.31 ГБ
Сидеров: 0
Личеров: 0
Статус: (salma3)
Автор

СообщениеДобавлено: 30 сен 2016, 00:49 

Не в сети
Дата регистрации:
28 сен 2016, 18:10
Спасибо: 55 / 0
Сообщения: 942
Название: Абатуар
Оригинальное название: Abattoir
Год выхода: 2016
Жанр: ужасы, триллер
Режиссер: Даррен Линн Боусман

В ролях: Джессика Лаундес, Джо Андерсон, Лин Шэй, Майкл Паре, Дэйтон Калли, Брайан Бэтт, Джон МакКоннелл, Эйден Флауэрс, Томас Мерфи, Джэй Хьюджули

О фильме: Журналистка Джулия ведет расследование странных обстоятельств смерти своей сестры. Муж, одержимый жуткими видениями, убил жену и сына, а комната, где произошло преступление, исчезла. Джулия выясняет, что такое уже случалось раньше, а покупателем домов, где произошли убийства, всегда выступал человек по имени Джеремайя Крон. Следы таинственного покупателя приводят Джулию в затерявшееся на карте место, где из материалов пропавших комнат строится дом с призраками. Но самое страшное — не сам дом, а кому и для чего он нужен.



Страна: США / Dark Web Productions, Les Enfants Terribles, Luminary Entertainment, Pacific Bridge Pictures
Продолжительность: 01:39:03
Перевод: Любительский (двухголосый закадровый) [Levelin]
Файл
Качество: BDRip-AVC
Формат: MKV
Видео: AVC, 2700 kb/s, 1024x436
Звук: Русский: AC3, 2 ch, 192 kb/s, английский: AC3, 6 ch, 448 kb/s
Субтитры: английскиe
Дополнительно: Сохранены оригинальные главы (чаптеры)

Релиз от:
Format : Matroska
Format version : Version 4 / Version 2
File size : 2.31 GiB
Duration : 1 h 39 min
Overall bit rate : 3 339 kb/s
Movie name : Rip by basma4i
Writing application : XviD4PSP 7.0.299 DAILY
Writing library : Lavf57.41.100 / Lavf57.41.100
Cover : Yes
Attachments : cover.jpg
ENCODING_INFO : MATROSKA,WEBM > MKV / H264 > X264 VBR-2P 2700kbps Произвольный / AC3 > AC3 CBR 192kbps / DTS-HD MA > AC3 CBR 480kbps
Video
ID : 1
Format : AVC
Format/Info : Advanced Video Codec
Format profile : Main@L4.1
Format settings, CABAC : Yes
Format settings, ReFrames : 12 frames
Codec ID : V_MPEG4/ISO/AVC
Bit rate : 2 700 kb/s
Width : 1 024 pixels
Height : 436 pixels
Display aspect ratio : 2.40:1
Frame rate mode : Variable
Original frame rate : 23.976 FPS
Color space : YUV
Chroma subsampling : 4:2:0
Bit depth : 8 bits
Scan type : Progressive
Bits/(Pixel*Frame) : 0.252
Writing library : x264 core 148 r2705M 3f5ed56
Encoding settings : cabac=1 / ref=12 / deblock=1:-3:-3 / analyse=0x1:0x131 / me=umh / subme=9 / psy=1 / psy_rd=1.00:0.20 / mixed_ref=1 / me_range=16 / chroma_me=1 / trellis=0 / 8x8dct=0 / cqm=0 / deadzone=21,11 / fast_pskip=1 / chroma_qp_offset=-2 / threads=11 / lookahead_threads=1 / sliced_threads=0 / nr=0 / decimate=0 / interlaced=0 / bluray_compat=0 / constrained_intra=0 / bframes=10 / b_pyramid=2 / b_adapt=1 / b_bias=8 / direct=3 / weightb=1 / open_gop=0 / weightp=2 / keyint=230 / keyint_min=23 / scenecut=40 / intra_refresh=0 / rc_lookahead=40 / rc=2pass / mbtree=1 / bitrate=2700 / ratetol=1.0 / qcomp=0.60 / qpmin=0 / qpmax=69 / qpstep=4 / cplxblur=20.0 / qblur=0.5 / vbv_maxrate=35000 / vbv_bufsize=45000 / nal_hrd=none / filler=0 / ip_ratio=1.40 / aq=1:1.00
Language : English
Default : Yes
Forced : No
Color range : Limited
Color primaries : BT.709
Transfer characteristics : BT.709
Matrix coefficients : BT.709
DURATION : 01:39:03.484000000
Audio #1
ID : 2
Format : AC-3
Format/Info : Audio Coding 3
Mode extension : CM (complete main)
Format settings, Endianness : Big
Codec ID : A_AC3
Duration : 1 h 39 min
Bit rate mode : Constant
Bit rate : 192 kb/s
Channel(s) : 2 channels
Channel positions : Front: L R
Sampling rate : 48.0 kHz
Frame rate : 31.250 FPS (1536 spf)
Bit depth : 32 bits
Compression mode : Lossy
Stream size : 136 MiB (6%)
Title : Levelin
Language : Russian
Default : Yes
Forced : No
DURATION : 01:39:03.648000000
Audio #2
ID : 3
Format : AC-3
Format/Info : Audio Coding 3
Mode extension : CM (complete main)
Format settings, Endianness : Big
Codec ID : A_AC3
Duration : 1 h 39 min
Bit rate mode : Constant
Bit rate : 448 kb/s
Channel(s) : 6 channels
Channel positions : Front: L C R, Side: L R, LFE
Sampling rate : 48.0 kHz
Frame rate : 31.250 FPS (1536 spf)
Bit depth : 32 bits
Compression mode : Lossy
Stream size : 317 MiB (13%)
Language : English
Default : No
Forced : No
DURATION : 01:39:03.520000000
Text
ID : 4
Format : UTF-8
Codec ID : S_TEXT/UTF8
Codec ID/Info : UTF-8 Plain Text
Title : SDH
Language : English
Default : Yes
Forced : No
DURATION : 01:39:01.775000000
Menu
00:00:00.000 : :00:00:00.000
00:08:22.711 : :00:08:22.711
00:15:56.164 : :00:15:56.164
00:24:36.517 : :00:24:36.517
00:30:10.517 : :00:30:10.517
00:37:15.191 : :00:37:15.191
00:49:58.787 : :00:49:58.787
00:56:37.644 : :00:56:37.644
01:03:54.873 : :01:03:54.873
01:11:52.308 : :01:11:52.308
01:20:01.046 : :01:20:01.046
01:26:27.265 : :01:26:27.265




реклама партнёра


Вернуться к началу
 Профиль Отправить личное сообщение  
 
   Похожие торренты   Автор   Торрент   Размер 
В этой теме нет новых непрочитанных сообщений. Абатуар / Abattoir [ужасы, триллер, 2016] BDRip, Dvo

salma3

1240 | 155

1.46 ГБ

В этой теме нет новых непрочитанных сообщений. Абатуар / Abattoir [ужасы, триллер, 2016] BDRip 1080p, Dvo

salma3

69 | 10

8.28 ГБ

В этой теме нет новых непрочитанных сообщений. Абатуар / Abattoir [ужасы, триллер, 2016] BDRip 720p, Dvo

salma3

147 | 18

4.15 ГБ

В этой теме нет новых непрочитанных сообщений. Абатуар / Abattoir [ужасы, триллер, 2016] HDRip, Dvo

marya111

58 | 5

744 МБ

В этой теме нет новых непрочитанных сообщений. Вопль / Goksung [триллер, детектив, ужасы, 2016] BDRip, Dvo

salma3

114 | 38

2.18 ГБ

В этой теме нет новых непрочитанных сообщений. Темнота / The Darkness [Ужасы, триллер, 2016] BDRip 1080p, Mvo

salma3

0 | 0

8.51 ГБ

В этой теме нет новых непрочитанных сообщений. Темнота / The Darkness [ужасы, триллер, 2016] BDRip 720p, Dvo

salma3

6 | 2

4.49 ГБ


Начать новую тему Ответить на тему  [ 1 сообщение ] 




Для Мосгорсуда, Роскомнадзора и рекламодателей:: mosgorsud-torrent[собачка]yandex.ru