Торрент файл
скачать торрент магнет ссылка Добавлен: 29 сен 2016, 02:33
Размер: 1.55 ГБ
Сидеров: 77
Личеров: 6
Статус: (salma3)
Автор

СообщениеДобавлено: 29 сен 2016, 02:33 

Не в сети
Дата регистрации:
28 сен 2016, 18:10
Спасибо: 55 / 0
Сообщения: 942
Оригинальное название: Код Каина
Год выхода: 2015
Жанр: Боевик, триллер, драма
Режиссер: Уильям Де Виталь, Денис Соболев

В ролях: Салли Кёркленд, Наташа Алам, Руслан Чернецкий, Евгений Шмарловский, Олеся Грибок, Эрик Робертс, Алексей Серебряков, Владимир Гостюхин, Игорь Савочкин, Коби Азарли

О фильме: В основе сюжета лежит Библейская история о Каине и Авеле, которая вновь оживает в современном мире. Успешная американская журналистка Сара Огден — агент тайного общества, которое исследует «Код Каина» — ген, толкающий человека на путь ненависти, предательства, убийства, несущий угрозу всему мирозданию. Для выполнения очередной миссии Сара отправляется в Восточную Европу на поиски носителя рокового гена. Удастся ли разрешить конфликт, когда ошибки уже допущены, обида нанесена и гнев, словно бушующее пламя, охватывает души и сердца людей? Смогут ли силы любви и примирения предотвратить трагедию или жестокого финала не избежать?



Выпущено: Беларусь, Нонстоп МЕДИА, Solomon Film Production
Продолжительность: 01:40:42
Перевод: Не требуется

Файл
Качество: HDRip (AVC)
Видео: MPEG-4 AVC, 1750 Кбит/с, 1024x428
Аудио: AC3, 6 ch, 448 Кбит/с
General
Unique ID : 193086099467598014474580056226562738896 (0x914307B362BA8E71A5C2B3BABFEE8AD0)
Complete name : E:KOD.KAlHA.2015.HDRip.AVC.ExKinoRay.mkv
Format : Matroska
Format version : Version 2
File size : 1.55 GiB
Duration : 1 h 40 min
Overall bit rate : 2 200 kb/s
Movie name : Kod Kaina 2015 from ExKinoRay
Encoded date : UTC 2016-09-27 11:51:56
Writing application : mkvmerge v7.6.0 ('Garden of Dreams') 32bit built on Feb 11 2015 00:18:47
Writing library : libebml v1.3.1 + libmatroska v1.4.2
Video
ID : 1
Format : AVC
Format/Info : Advanced Video Codec
Format profile : High@L4.1
Format settings, CABAC : Yes
Format settings, ReFrames : 12 frames
Codec ID : V_MPEG4/ISO/AVC
Duration : 1 h 40 min
Bit rate : 1 750 kb/s
Width : 1 024 pixels
Height : 428 pixels
Display aspect ratio : 2.40:1
Frame rate mode : Constant
Frame rate : 23.976 (23976/1000) FPS
Color space : YUV
Chroma subsampling : 4:2:0
Bit depth : 8 bits
Scan type : Progressive
Bits/(Pixel*Frame) : 0.167
Stream size : 1.20 GiB (78%)
Title : Enigma
Writing library : x264 core 144 r2525 40bb568
Encoding settings : cabac=1 / ref=12 / deblock=1:-2:-2 / analyse=0x3:0x113 / me=umh / subme=10 / psy=1 / psy_rd=1.00:0.10 / mixed_ref=1 / me_range=32 / chroma_me=1 / trellis=2 / 8x8dct=1 / cqm=0 / deadzone=21,11 / fast_pskip=0 / chroma_qp_offset=-3 / threads=12 / lookahead_threads=3 / sliced_threads=0 / nr=0 / decimate=0 / interlaced=0 / bluray_compat=0 / constrained_intra=0 / bframes=11 / b_pyramid=2 / b_adapt=2 / b_bias=0 / direct=3 / weightb=1 / open_gop=0 / weightp=2 / keyint=240 / keyint_min=23 / scenecut=40 / intra_refresh=0 / rc_lookahead=40 / rc=2pass / mbtree=0 / bitrate=1750 / ratetol=1.0 / qcomp=0.60 / qpmin=0 / qpmax=51 / qpstep=4 / cplxblur=20.0 / qblur=0.5 / vbv_maxrate=50000 / vbv_bufsize=62500 / nal_hrd=none / filler=0 / ip_ratio=1.40 / pb_ratio=1.30 / aq=1:0.80
Language : English
Default : Yes
Forced : No
Color range : Limited
Color primaries : BT.709
Transfer characteristics : BT.709
Matrix coefficients : BT.709
Audio
ID : 2
Format : AC-3
Format/Info : Audio Coding 3
Mode extension : CM (complete main)
Format settings, Endianness : Big
Codec ID : A_AC3
Duration : 1 h 40 min
Bit rate mode : Constant
Bit rate : 448 kb/s
Channel(s) : 6 channels
Channel positions : Front: L C R, Side: L R, LFE
Sampling rate : 48.0 kHz
Frame rate : 31.250 FPS (1536 spf)
Compression mode : Lossy
Stream size : 323 MiB (20%)
Language : Russian
Default : No
Forced : No

Автор релиза: Релиз от:




реклама партнёра


Вернуться к началу
 Профиль Отправить личное сообщение  
 
   Похожие торренты   Автор   Торрент   Размер 
В этой теме нет новых непрочитанных сообщений. Код Каина (боевик, триллер, драма, 2015) HDRip

marya111

0 | 0

2.01 ГБ

В этой теме нет новых непрочитанных сообщений. Воскрешение Каина / Raising Cain [триллер, драма, криминал, 1992] BDRemux 1080p, Avo+Dvo+Sub

salma3

29 | 9

24.55 ГБ

В этой теме нет новых непрочитанных сообщений. Штормагеддон / Stormageddon [фантастика, боевик, триллер, драма, 2015] HDRip, Mvo [Официальный звук]

salma3

1399 | 50

1.37 ГБ

В этой теме нет новых непрочитанных сообщений. Волна / Bølgen (Роар Утхауг) [Боевик, триллер, драма, 2015] HDRip, Dub [iTunes]

Dracon

95 | 12

2.05 ГБ

В этой теме нет новых непрочитанных сообщений. Волна / Bølgen (Роар Утхауг) [Боевик, триллер, драма, 2015] HDRip, Dub [iTunes]

Dracon

425 | 50

1.37 ГБ

В этой теме нет новых непрочитанных сообщений. Взаимное притяжение / Зов крови / Jazbaa [боевик, триллер, драма, криминал, 2015] HDRip, Mvo

salma3

120 | 10

2 ГБ

В этой теме нет новых непрочитанных сообщений. Воскрешение Каина / Raising Cain [Триллер, 1992] BDRip 1080p, Avo+Dvo+Sub

salma3

35 | 22

9.6 ГБ


Начать новую тему Ответить на тему  [ 1 сообщение ] 




Для Мосгорсуда, Роскомнадзора и рекламодателей:: mosgorsud-torrent[собачка]yandex.ru