Торрент файл
скачать торрент магнет ссылка Добавлен: 29 сен 2016, 02:32
Размер: 2.14 ГБ
Сидеров: 15
Личеров: 2
Автор

СообщениеДобавлено: 29 сен 2016, 02:32 

Не в сети
Дата регистрации:
28 сен 2016, 18:10
Спасибо: 55 / 0
Сообщения: 942
Русское название: Отмель
Оригинальное название: The Shallows
Год выпуска: 2016
Жанр: ужасы, триллер, драма
Выпущено: США
Режиссер: Хауме Кольет-Серра
В ролях: Блейк Лайвли , Оскар Хаэнада , Бретт Каллен , Седона Ледже , Пабло Кальва , Диего Эспехель , Джанелл Бэйли , Ава Дин , Челси Муди , Салли Сигалл , Angelo Jose Lozano Corzo
Перевод: Дублированный - [iTunes]

Сюжет фильма:
Бескрайний океан, безлюдный пляж и идеальная погода для серфингистов в поисках хорошей волны. Казалось бы, ничто не предвещает беды для очаровательной любительницы серфинга в одиночку. Разве что свидание тет-а-тет с гигантской акулой, которая загонит спортсменку на песчаную отмель и не отступит до тех пор, пока не получит своё.

Качество: BDRip-AVC
Формат: AVC (библиотека кодирования x.264)
Контейнер (Расширение): MKV
Видео: 1024x428, 2724 Кбит/сек, 23,976 кадр/сек, 0,259 Бит/[Пиксели*Кадры]
Аудио №1: русский / AC3 / 5.1 / 48 kHz / 384 kbps / |Дублированный - [iTunes|
Аудио №2: английский / AC3 / 5.1 / 48 kHz / 448 kbps /
Субтитры: русские (forced), русские, английские (forced), английские
Навигация по главам(Чаптеры): есть
Продолжительность: 01:26:16
Format : Matroska
Format version : Version 2
File size : 2.14 GiB
Duration : 1 h 26 min
Overall bit rate : 3 558 kb/s
Movie name : The Shallows.(2016).BDRip-AVC.[denis100]
Encoded date : UTC 2016-09-14 10:35:07
Writing application : mkvmerge v5.8.0 ('No Sleep / Pillow') built on Sep 2 2012 15:37:04
Writing library : libebml v1.2.3 + libmatroska v1.3.0
Video
ID : 1
Format : AVC
Format/Info : Advanced Video Codec
Format profile : High@L4.1
Format settings, CABAC : Yes
Format settings, ReFrames : 11 frames
Codec ID : V_MPEG4/ISO/AVC
Duration : 1 h 26 min
Bit rate : 2 724 kb/s
Width : 1 024 pixels
Height : 428 pixels
Display aspect ratio : 2.40:1
Frame rate mode : Constant
Frame rate : 23.976 (24000/1001) FPS
Color space : YUV
Chroma subsampling : 4:2:0
Bit depth : 8 bits
Scan type : Progressive
Bits/(Pixel*Frame) : 0.259
Stream size : 1.60 GiB (75%)
Title : The Shallows.(2016).BDRip-AVC.[denis100]
Writing library : x264 core 148 r2705 3f5ed56
Encoding settings : cabac=1 / ref=11 / deblock=1:-3:-3 / analyse=0x3:0x133 / me=umh / subme=11 / psy=1 / psy_rd=1.00:0.05 / mixed_ref=1 / me_range=32 / chroma_me=1 / trellis=2 / 8x8dct=1 / cqm=0 / deadzone=21,11 / fast_pskip=0 / chroma_qp_offset=-3 / threads=6 / lookahead_threads=1 / sliced_threads=0 / nr=0 / decimate=1 / interlaced=0 / bluray_compat=0 / constrained_intra=0 / bframes=10 / b_pyramid=2 / b_adapt=2 / b_bias=0 / direct=3 / weightb=1 / open_gop=0 / weightp=2 / keyint=240 / keyint_min=23 / scenecut=40 / intra_refresh=0 / rc=2pass / mbtree=0 / bitrate=2724 / ratetol=1.0 / qcomp=0.60 / qpmin=0 / qpmax=69 / qpstep=4 / cplxblur=20.0 / qblur=0.5 / ip_ratio=1.40 / pb_ratio=1.30 / aq=1:0.90
Language : English
Default : Yes
Forced : No
Audio #1
ID : 2
Format : AC-3
Format/Info : Audio Coding 3
Mode extension : CM (complete main)
Format settings, Endianness : Big
Codec ID : A_AC3
Duration : 1 h 26 min
Bit rate mode : Constant
Bit rate : 384 kb/s
Channel(s) : 6 channels
Channel positions : Front: L C R, Side: L R, LFE
Sampling rate : 48.0 kHz
Frame rate : 31.250 FPS (1536 spf)
Compression mode : Lossy
Delay relative to video : 7 ms
Stream size : 237 MiB (11%)
Title : Дубляж, iTunes
Language : Russian
Default : Yes
Forced : No
Audio #2
ID : 3
Format : AC-3
Format/Info : Audio Coding 3
Mode extension : CM (complete main)
Format settings, Endianness : Big
Codec ID : A_AC3
Duration : 1 h 26 min
Bit rate mode : Constant
Bit rate : 448 kb/s
Channel(s) : 6 channels
Channel positions : Front: L C R, Side: L R, LFE
Sampling rate : 48.0 kHz
Frame rate : 31.250 FPS (1536 spf)
Compression mode : Lossy
Stream size : 276 MiB (13%)
Language : English
Default : No
Forced : No
Text #1
ID : 4
Format : UTF-8
Codec ID : S_TEXT/UTF8
Codec ID/Info : UTF-8 Plain Text
Title : forced
Language : Russian
Default : Yes
Forced : No
Text #2
ID : 5
Format : UTF-8
Codec ID : S_TEXT/UTF8
Codec ID/Info : UTF-8 Plain Text
Language : Russian
Default : No
Forced : No
Text #3
ID : 6
Format : UTF-8
Codec ID : S_TEXT/UTF8
Codec ID/Info : UTF-8 Plain Text
Title : forced
Language : English
Default : No
Forced : No
Text #4
ID : 7
Format : UTF-8
Codec ID : S_TEXT/UTF8
Codec ID/Info : UTF-8 Plain Text
Language : English
Default : No
Forced : No
Menu
00:00:00.000 : en:Chapter 1
00:08:09.697 : en:Chapter 2
00:15:10.407 : en:Chapter 3
00:20:31.939 : en:Chapter 4
00:25:45.876 : en:Chapter 5
00:30:07.055 : en:Chapter 6
00:36:04.118 : en:Chapter 7
00:40:39.685 : en:Chapter 8
00:45:41.611 : en:Chapter 9
00:49:32.219 : en:Chapter 10
00:55:57.977 : en:Chapter 11
01:01:21.510 : en:Chapter 12
01:06:22.561 : en:Chapter 13
01:09:57.443 : en:Chapter 14
01:13:38.704 : en:Chapter 15
01:19:01.485 : en:Chapter 16




реклама партнёра


Вернуться к началу
 Профиль Отправить личное сообщение  
 
   Похожие торренты   Автор   Торрент   Размер 
В этой теме нет новых непрочитанных сообщений. Отмель / The Shallows [ужасы, триллер, драма, 2016] BDRip, Dub [iTunes]

salma3

984 | 73

1.42 ГБ

В этой теме нет новых непрочитанных сообщений. Отмель / The Shallows [ужасы, триллер, драма, 2016] BDRip-AVC, Dub [iTunes]

salma3

342 | 31

2.96 ГБ

В этой теме нет новых непрочитанных сообщений. Отмель / The Shallows [ужасы, триллер, драма, 2016] BDRip 720p, Dub [iTunes]

marya111

986 | 108

5.76 ГБ

В этой теме нет новых непрочитанных сообщений. Отмель / The Shallows (ужасы, триллер, драма, 2016) BDRip 720p от HELLYWOOD | iTunes

marya111

100 | 13

5.59 ГБ

В этой теме нет новых непрочитанных сообщений. Сомния / Before I Wake [ужасы, фэнтези, триллер, драма, 2016] BDRip-AVC, Dub [iTunes]

salma3

114 | 39

2.14 ГБ

В этой теме нет новых непрочитанных сообщений. Сомния / Before I Wake [ужасы, фэнтези, триллер, драма, 2016] BDRip-AVC, Dub [iTunes]

salma3

319 | 64

1.42 ГБ

В этой теме нет новых непрочитанных сообщений. Не дыши / Don't Breathe (ужасы, триллер, 2016) BDRip 720p | iTunes

marya111

97 | 6

4.61 ГБ


Начать новую тему Ответить на тему  [ 1 сообщение ] 




Для Мосгорсуда, Роскомнадзора и рекламодателей:: mosgorsud-torrent[собачка]yandex.ru