Торрент файл
скачать торрент магнет ссылка Добавлен: 27 сен 2016, 11:41
Размер: 1.46 ГБ
Сидеров: 30
Личеров: 14
Статус: (salma3)
Автор

СообщениеДобавлено: 27 сен 2016, 11:41 

Не в сети
Супермодератор
Аватара пользователя
Дата регистрации:
15 фев 2012, 16:44
Возраст: 27
Спасибо: 5130 / 2089
Сообщения: 17372
Страна: Великобритания США
Производство: Contraption Limited, Heavy Productions
Год выпуска: 2010
Жанр: триллер
Продолжительность: 01:41:46
Режиссер: Маркус Уоррен
Автор сценария: Маркус Уоррен

В ролях: Гари Стретч, Винни Джонс, Стивен Ри, Шаннин Соссамон, Кристофер Ли, Ли Райан, Эдриан Пол, Джин Марш, Сэди Фрост, Джофф Белл

Описание: Герой фильма — бандит-«шестёрка» Бутс, который в уплату долга своему боссу должен убить собственного брата-политика. По ходу реализации плана в пустой квартире из которой должен быть произведен роковой выстрел случайно оказывается симпатичная студентка Клэр. Так же дело осложняется тем, что по следу потенциального киллера идёт коррумпированный детектив Данн...



Перевод: Профессиональный (многоголосый, закадровый) | R5
Субтитры: нет

Качество: BDRip
Формат: AVI
Видео кодек: XviD
Аудио кодек: AC3
Видео: 704x384 (1.85:1), 23.976 fps, XviD build 65 ~1 656 kbps avg
Аудио: 48.0 kHz, AC3 Dolby Digital, 3/2 (L,C,R,l,r) + LFE ch, ~384 kbps
Дата премьеры (мир): 8 апреля 2010
Complete name : The.Heavy.2010.BDRip.XviD-denashekkk.avi
Format : AVI
Format/Info : Audio Video Interleave
File size : 1.46 GiB
Duration : 1h 41mn
Overall bit rate : 2 049 Kbps
Writing application : VirtualDubMod 1.5.10.2 (build 2540/release)
Writing library : VirtualDubMod build 2540/release
Video
ID : 0
Format : MPEG-4 Visual
Format profile : Advanced Simple@L5
Format settings, BVOP : 2
Format settings, QPel : No
Format settings, GMC : No warppoints
Format settings, Matrix : Custom
Codec ID : XVID
Codec ID/Hint : XviD
Duration : 1h 41mn
Bit rate : 1 656 Kbps
Width : 704 pixels
Height : 384 pixels
Display aspect ratio : 16:9
Frame rate : 23.976 fps
Color space : YUV
Chroma subsampling : 4:2:0
Bit depth : 8 bits
Scan type : Progressive
Compression mode : Lossy
Bits/(Pixel*Frame) : 0.256
Stream size : 1.18 GiB (81%)
Writing library : XviD 65
Audio
ID : 1
Format : AC-3
Format/Info : Audio Coding 3
Mode extension : CM (complete main)
Codec ID : 2000
Duration : 1h 41mn
Bit rate mode : Constant
Bit rate : 384 Kbps
Channel(s) : 6 channels
Channel positions : Front: L C R, Side: L R, LFE
Sampling rate : 48.0 KHz
Bit depth : 16 bits
Compression mode : Lossy
Stream size : 280 MiB (19%)
Alignment : Split accross interleaves
Interleave, duration : 42 ms (1.00 video frame)
Interleave, preload duration : 500 ms


_________________



реклама партнёра


Вернуться к началу
 Профиль Отправить личное сообщение  
 
   Похожие торренты   Автор   Торрент   Размер 
В этой теме нет новых непрочитанных сообщений. Жизнь за брата / The Heavy [триллер, 2010] BDRip-AVC, Mvo

salma3

49 | 23

1.45 ГБ

В этой теме нет новых непрочитанных сообщений. Жизнь за брата / The Heavy [триллер, 2010] BDRemux 1080р, Mvo

salma3

15 | 9

19.11 ГБ

В этой теме нет новых непрочитанных сообщений. Абордаж - Спокойная Жизнь - Не Для Нас [2010, Heavy Metal, MP3]

PriZraK

0 | 1

99.23 МБ

В этой теме нет новых непрочитанных сообщений. Приключения хитроумного брата Шерлока Холмса / The Adventure of Sherlock Holmes' Smarter Brother [комедия, 1975] BDRip 720p, Mvo

salma3

50 | 7

4.62 ГБ

В этой теме нет новых непрочитанных сообщений. Кошелек или жизнь / Trick 'r Treat [ужасы, чёрная комедия, триллер, 2007] BDRip, Dub [Лицензия]

salma3

79 | 7

1.46 ГБ

В этой теме нет новых непрочитанных сообщений. Fall'in Dreams - Девятая жизнь [2012, Hard-n-Heavy, MP3]

PriZraK

0 | 1

64.48 МБ

В этой теме нет новых непрочитанных сообщений. Другая жизнь Ришара Кемпа / L'autre vie de Richard Kemp [Фантастика, триллер, криминал, 2013] BDRip 720p, avo+sub

Dracon

368 | 39

4.82 ГБ


Начать новую тему Ответить на тему  [ 1 сообщение ] 




Для Мосгорсуда, Роскомнадзора и рекламодателей:: mosgorsud-torrent[собачка]yandex.ru