Торрент файл
скачать торрент магнет ссылка Добавлен: 25 сен 2016, 12:20
Размер: 2.18 ГБ
Сидеров: 203
Личеров: 23
Статус: (salma3)
Автор

СообщениеДобавлено: 25 сен 2016, 12:20 

В сети
Супермодератор
Аватара пользователя
Дата регистрации:
15 фев 2012, 16:44
Возраст: 27
Спасибо: 5139 / 2089
Сообщения: 17421
Перевод: Профессиональный (полное дублирование) [лицензия]
субтитры: русские, украинские, английские
Формат: BDRip-AVC, MKV, H.264, AC3
Страна: США, Канада
Режиссер: Гильермо дель Торо
Жанр: ужасы, фэнтези, триллер, драма, мелодрама, детектив
Продолжительность: 01:58:42
Год выпуска: 2015

В ролях: Миа Васиковска, Джессика Честейн, Том Хиддлстон, Чарли Ханнэм, Джим Бивер, Берн Горман, Лесли Хоуп, Даг Джонс, Джонатан Хайд, Брюс Грэй

Описание: Дурная слава преследует дом, что возвышается над городом. С приходом зимы он утопает в кровавых снегах. Говорят, дело в глине, проступающей на поверхность. Но ни единая душа не рискует ступить на ледяной склон… кроме нее. Она влюблена в таинственного незнакомца, живущего в древних стенах со своей сестрой. Багровый пик пробудился и уже не уснет.



Видео: 1024x552 (1.85:1), 23.976 fps, AVC (H.264), ~1861 kbps, 0.137 bit/pixel
Аудио #1: Русский: 48 kHz, AC3 Dolby Digital, 3/2 (L,C,R,l,r) + LFE ch, ~384 kbps [Профессиональный (полное дублирование)]
Аудио #2: Английский: 48 kHz, AC3 Dolby Digital, 3/2 (L,C,R,l,r) + LFE ch, ~384 kbps [Оригинал]

Общее
Уникальный идентификатор : 219441042006161230153681344765199908301 (0xA516CEB0A24B1F9499DBC2D17AD3FDCD)
Полное имя : Bagrovyi.Pik.2015.DUAL.BDRip.x264.-HELLYWOOD.mkv
Формат : Matroska
Версия формата : Version 4 / Version 2
Размер файла : 2,18 Гбайт
Длительность : 1 ч. 58 м.
Общий поток : 2628 Кбит/сек
Название фильма : Crimson Peak (2015) - HELLYWOOD
Дата кодирования : UTC 2016-02-10 07:52:57
Программа кодирования : mkvmerge v5.9.0 ('On The Loose') built on Dec 15 2012 16:39:58
Библиотека кодирования : libebml v1.3.0 + libmatroska v1.4.0

Видео
Идентификатор : 1
Формат : AVC
Формат/Информация : Advanced Video Кодек
Профиль формата :
Параметр CABAC формата : Да
Параметр ReFrames формата : 12 кадров
Идентификатор кодека : V_MPEG4/ISO/AVC
Длительность : 1 ч. 58 м.
Битрейт : 1861 Кбит/сек
Ширина : 1024 пикселя
Высота : 552 пикселя
Соотношение сторон : 1,85:1
Режим частоты кадров : Постоянный
Частота кадров : 23,976 кадра/сек
Цветовое пространство : YUV
Субдискретизация насыщенности : 4:2:0
Битовая глубина : 8 бит
Тип развёртки : Прогрессивная
Бит/(Пиксели*Кадры) : 0.137
Размер потока : 1,50 Гбайт (69%)
Заголовок : potroks
Библиотека кодирования : x264 core 146 r2538 121396c
Настройки программы : cabac=1 / ref=12 / deblock=1:-2:-2 / analyse=0x3:0x113 / me=umh / subme=11 / psy=1 / psy_rd=1.00:0.05 / mixed_ref=1 / me_range=48 / chroma_me=1 / trellis=2 / 8x8dct=1 / cqm=0 / deadzone=21,11 / fast_pskip=0 / chroma_qp_offset=-3 / threads=9 / lookahead_threads=2 / sliced_threads=0 / nr=0 / decimate=0 / interlaced=0 / bluray_compat=0 / constrained_intra=0 / bframes=13 / b_pyramid=2 / b_adapt=2 / b_bias=0 / direct=3 / weightb=1 / open_gop=0 / weightp=2 / keyint=240 / keyint_min=23 / scenecut=40 / intra_refresh=0 / rc_lookahead=60 / rc=2pass / mbtree=0 / bitrate=1861 / ratetol=1.0 / qcomp=0.70 / qpmin=0 / qpmax=69 / qpstep=4 / cplxblur=20.0 / qblur=0.5 / vbv_maxrate=14000 / vbv_bufsize=14000 / nal_hrd=none / filler=0 / ip_ratio=1.35 / pb_ratio=1.25 / aq=1:0.80
Язык : English
Default : Да
Forced : Нет

Аудио #1
Идентификатор : 2
Формат : AC-3
Формат/Информация : Audio Coding 3
Расширение режима : CM (complete main)
Параметр Endianness формата : Big
Идентификатор кодека : A_AC3
Длительность : 1 ч. 58 м.
Вид битрейта : Постоянный
Битрейт : 384 Кбит/сек
Каналы : 6 каналов
Расположение каналов : Front: L C R, Side: L R, LFE
Частота : 48,0 КГц
Метод сжатия : С потерями
Размер потока : 326 Мбайт (15%)
Заголовок : Dub | DD 5.1 @ 384 kbps - Blu-Ray CEE
Язык : Russian
Default : Да
Forced : Нет

Аудио #2
Идентификатор : 3
Формат : AC-3
Формат/Информация : Audio Coding 3
Расширение режима : CM (complete main)
Параметр Endianness формата : Big
Идентификатор кодека : A_AC3
Длительность : 1 ч. 58 м.
Вид битрейта : Постоянный
Битрейт : 384 Кбит/сек
Каналы : 6 каналов
Расположение каналов : Front: L C R, Side: L R, LFE
Частота : 48,0 КГц
Метод сжатия : С потерями
Размер потока : 326 Мбайт (15%)
Заголовок : Original | DD 5.1 @ 384 kbps
Язык : English
Default : Нет
Forced : Нет

Текст #1
Идентификатор : 4
Формат : UTF-8
Идентификатор кодека : S_TEXT/UTF8
Идентификатор кодека/Информация : UTF-8 Plain Text
Заголовок : Forced
Язык : Russian
Default : Да
Forced : Нет

Текст #2
Идентификатор : 5
Формат : UTF-8
Идентификатор кодека : S_TEXT/UTF8
Идентификатор кодека/Информация : UTF-8 Plain Text
Язык : Russian
Default : Нет
Forced : Нет

Текст #3
Идентификатор : 6
Формат : UTF-8
Идентификатор кодека : S_TEXT/UTF8
Идентификатор кодека/Информация : UTF-8 Plain Text
Заголовок : Forced
Язык : Ukrainian
Default : Нет
Forced : Нет

Текст #4
Идентификатор : 7
Формат : UTF-8
Идентификатор кодека : S_TEXT/UTF8
Идентификатор кодека/Информация : UTF-8 Plain Text
Язык : Ukrainian
Default : Нет
Forced : Нет

Текст #5
Идентификатор : 8
Формат : UTF-8
Идентификатор кодека : S_TEXT/UTF8
Идентификатор кодека/Информация : UTF-8 Plain Text
Заголовок : Full
Язык : English
Default : Нет
Forced : Нет

Текст #6
Идентификатор : 9
Формат : UTF-8
Идентификатор кодека : S_TEXT/UTF8
Идентификатор кодека/Информация : UTF-8 Plain Text
Заголовок : SDH
Язык : English
Default : Нет
Forced : Нет

Меню
00:00:00.000 : en:(01)00:00:00:000
00:06:02.528 : en:(02)00:06:02:528
00:11:01.202 : en:(03)00:11:01:202
00:15:29.720 : en:(04)00:15:29:720
00:21:13.105 : en:(05)00:21:13:105
00:25:52.926 : en:(06)00:25:52:926
00:31:14.664 : en:(07)00:31:14:664
00:39:26.822 : en:(08)00:39:26:822
00:45:40.612 : en:(09)00:45:40:612
00:51:57.030 : en:(10)00:51:57:030
00:56:11.576 : en:(11)00:56:11:576
01:02:05.096 : en:(12)01:02:05:096
01:08:19.929 : en:(13)01:08:19:929
01:14:24.835 : en:(14)01:14:24:835
01:20:19.105 : en:(15)01:20:19:105
01:25:54.149 : en:(16)01:25:54:149
01:30:38.891 : en:(17)01:30:38:891
01:36:09.638 : en:(18)01:36:09:638
01:43:21.069 : en:(19)01:43:21:069
01:51:24.135 : en:(20)01:51:24:135
01:58:43.491 : en:(21)01:58:43:491





_________________



реклама партнёра


Вернуться к началу
 Профиль Отправить личное сообщение  
 
   Похожие торренты   Автор   Торрент   Размер 
В этой теме нет новых непрочитанных сообщений. Багровый пик / Crimson Peak [ужасы, фэнтези, триллер, драма, мелодрама, детектив, 2015] BDRip 720p, Dub [iTunes]

Dracon

151 | 9

5.78 ГБ

В этой теме нет новых непрочитанных сообщений. Багровый пик / Crimson Peak (Гильермо дель Торо) [ужасы, фэнтези, триллер, драма, мелодрама, детектив, 2015] BDRemux, Dub+Sub [Лицензия]

Dracon

82 | 20

31.55 ГБ

В этой теме нет новых непрочитанных сообщений. Багровый пик / Crimson Peak (Гильермо дель Торо) [ужасы, фэнтези, триллер, драма, мелодрама, детектив, 2015] HDRip, Dub [iTunes]

Dracon

164 | 4

2.05 ГБ

В этой теме нет новых непрочитанных сообщений. Багровый пик / Crimson Peak (Гильермо дель Торо) [ужасы, фэнтези, триллер, драма, мелодрама, детектив, 2015] WEB-DL 720p, Dub [iTunes]

Dracon

7746 | 349

3.59 ГБ

В этой теме нет новых непрочитанных сообщений. Багровый пик / Crimson Peak (Гильермо дель Торо) [ужасы, фэнтези, триллер, драма, мелодрама, детектив, 2015] HDRip, Dub [iTunes]

Dracon

391 | 8

1.37 ГБ

В этой теме нет новых непрочитанных сообщений. Багровый прилив / Crimson Tide [Боевик, триллер, драм, 1995] BDRemux 1080p, Mvo+Avo+Sub

salma3

25 | 8

25.73 ГБ

В этой теме нет новых непрочитанных сообщений. Багровая зима / Crimson Winter / Crimson Throne [ужасы, боевик, драма, 2013] BDRip 720p, avo

Dracon

81 | 14

4.51 ГБ


Начать новую тему Ответить на тему  [ 1 сообщение ] 




Для Мосгорсуда, Роскомнадзора и рекламодателей:: mosgorsud-torrent[собачка]yandex.ru