Торрент файл
скачать торрент магнет ссылка Добавлен: 25 сен 2016, 12:10
Размер: 2.96 ГБ
Сидеров: 342
Личеров: 31
Статус: (salma3)
Автор

СообщениеДобавлено: 25 сен 2016, 12:10 

Не в сети
Супермодератор
Аватара пользователя
Дата регистрации:
15 фев 2012, 16:44
Возраст: 27
Спасибо: 5130 / 2089
Сообщения: 17350
Перевод: Профессиональный (полное дублирование) [iTunes]
субтитры: русские, английские
Формат: BDRip-AVC, MKV, H.264, AC3
Страна: США
Режиссер: Хауме Кольет-Серра
Жанр: ужасы, триллер, драма
Продолжительность: 01:26:16
Год выпуска: 2016

В ролях: Блейк Лайвли, Оскар Хаэнада, Бретт Каллен, Седона Ледже

Описание: Бескрайний океан, безлюдный пляж и идеальная погода для серфингистов в поисках хорошей волны. Казалось бы, ничто не предвещает беды для очаровательной любительницы серфинга в одиночку. Разве что свидание тет-а-тет с гигантской акулой, которая загонит спортсменку на песчаную отмель и не отступит до тех пор, пока не получит своё.



Видео: 1024x428 (2.40:1), 23.976 fps, AVC MPEG-4 (H.264), ~3988 kbps, 0.380 bit/pixel
Аудио #1: Русский: 48 kHz, AC3 Dolby Digital, 6 ch, ~384 kbps [Профессиональный (полное дублирование)]
Аудио #2: Английский: 48 kHz, AC3 Dolby Digital, 6 ch, ~384 kbps [Оригинал]

Format version : Version 4 / Version 2
File size : 2.96 GiB
Duration : 1h 26mn
Overall bit rate : 4 918 Kbps
Movie name : Отмель / The Shallows (2016) :: AFM ::
Encoded date : UTC 2016-09-13 11:28:58
Writing application : mkvmerge v8.3.0 ('Over the Horizon') 32bit
Writing library : libebml v1.3.1 + libmatroska v1.4.2

Video
ID : 1
Format : AVC
Format/Info : Advanced Video Codec
Format profile :
Format settings, CABAC : Yes
Format settings, ReFrames : 10 frames
Codec ID : V_MPEG4/ISO/AVC
Duration : 1h 26mn
Bit rate : 3 988 Kbps
Width : 1 024 pixels
Height : 428 pixels
Display aspect ratio : 2.40:1
Frame rate mode : Constant
Frame rate : 23.976 fps
Color space : YUV
Chroma subsampling : 4:2:0
Bit depth : 8 bits
Scan type : Progressive
Bits/(Pixel*Frame) : 0.380
Stream size : 2.40 GiB (81%)
Title : BDRip by AFM [RuTracker.org]
Writing library : x264 core 148 r2705+54 9f484c1 t_mod_Custom [8-bit@all X86_64]
Encoding settings : cabac=1 / ref=10 / deblock=1:-2:-2 / analyse=0x3:0x113 / me=umh / subme=10 / psy=1 / fade_compensate=0.00 / psy_rd=1.00:0.00 / mixed_ref=1 / me_range=32 / chroma_me=1 / trellis=2 / 8x8dct=1 / cqm=0 / deadzone=21,11 / fast_pskip=0 / chroma_qp_offset=-2 / threads=6 / lookahead_threads=1 / sliced_threads=0 / nr=0 / decimate=1 / interlaced=0 / bluray_compat=0 / constrained_intra=0 / fgo=0 / bframes=9 / b_pyramid=2 / b_adapt=2 / b_bias=0 / direct=1 / weightb=1 / open_gop=0 / weightp=2 / keyint=250 / keyint_min=23 / scenecut=40 / intra_refresh=0 / rc_lookahead=40 / rc=crf / mbtree=0 / crf=17.4500 / qcomp=0.70 / qpmin=0:0:0 / qpmax=69:69:69 / qpstep=4 / vbv_maxrate=50000 / vbv_bufsize=62500 / crf_max=0.0 / nal_hrd=none / filler=0 / ip_ratio=1.30 / pb_ratio=1.25 / aq=3:0.80 / aq-sensitivity=10.00 / aq-factor=1.00:1.00:1.00 / aq2=0 / aq3=0 / zones=117060,124104,q=30
Language : English
Default : Yes
Forced : No

Audio #1
ID : 2
Format : AC-3
Format/Info : Audio Coding 3
Mode extension : CM (complete main)
Format settings, Endianness : Big
Codec ID : A_AC3
Duration : 1h 26mn
Bit rate mode : Constant
Bit rate : 384 Kbps
Channel(s) : 6 channels
Channel positions : Front: L C R, Side: L R, LFE
Sampling rate : 48.0 KHz
Compression mode : Lossy
Stream size : 237 MiB (8%)
Title : Dub, AC3 5.1 ~384 kbps
Language : Russian
Default : Yes
Forced : No

Audio #2
ID : 3
Format : AC-3
Format/Info : Audio Coding 3
Mode extension : CM (complete main)
Format settings, Endianness : Big
Codec ID : A_AC3
Duration : 1h 26mn
Bit rate mode : Constant
Bit rate : 448 Kbps
Channel(s) : 6 channels
Channel positions : Front: L C R, Side: L R, LFE
Sampling rate : 48.0 KHz
Compression mode : Lossy
Stream size : 276 MiB (9%)
Title : Original, AC3 5.1 ~384 kbps
Language : English
Default : No
Forced : No

Text #1
ID : 4
Format : UTF-8
Codec ID : S_TEXT/UTF8
Codec ID/Info : UTF-8 Plain Text
Title : forced
Language : Russian
Default : Yes
Forced : No

Text #2
ID : 5
Format : UTF-8
Codec ID : S_TEXT/UTF8
Codec ID/Info : UTF-8 Plain Text
Language : Russian
Default : No
Forced : No

Text #3
ID : 6
Format : UTF-8
Codec ID : S_TEXT/UTF8
Codec ID/Info : UTF-8 Plain Text
Title : forced
Language : English
Default : No
Forced : No

Text #4
ID : 7
Format : UTF-8
Codec ID : S_TEXT/UTF8
Codec ID/Info : UTF-8 Plain Text
Language : English
Default : No
Forced : No

Menu
00:00:00.000 : en:Chapter 1
00:08:09.697 : en:Chapter 2
00:15:10.407 : en:Chapter 3
00:20:31.939 : en:Chapter 4
00:25:45.876 : en:Chapter 5
00:30:07.055 : en:Chapter 6
00:36:04.118 : en:Chapter 7
00:40:39.685 : en:Chapter 8
00:45:41.611 : en:Chapter 9
00:49:32.219 : en:Chapter 10
00:55:57.977 : en:Chapter 11
01:01:21.510 : en:Chapter 12
01:06:22.561 : en:Chapter 13
01:09:57.443 : en:Chapter 14
01:13:38.704 : en:Chapter 15
01:19:01.485 : en:Chapter 16





_________________



реклама партнёра


Вернуться к началу
 Профиль Отправить личное сообщение  
 
   Похожие торренты   Автор   Торрент   Размер 
В этой теме нет новых непрочитанных сообщений. Отмель / The Shallows [ужасы, триллер, драма, 2016] BDRip-AVC, Dub [iTunes]

marya111

15 | 2

2.14 ГБ

В этой теме нет новых непрочитанных сообщений. Отмель / The Shallows [ужасы, триллер, драма, 2016] BDRip, Dub [iTunes]

salma3

984 | 73

1.42 ГБ

В этой теме нет новых непрочитанных сообщений. Отмель / The Shallows [ужасы, триллер, драма, 2016] BDRip 720p, Dub [iTunes]

marya111

986 | 108

5.76 ГБ

В этой теме нет новых непрочитанных сообщений. Отмель / The Shallows (ужасы, триллер, драма, 2016) BDRip 720p от HELLYWOOD | iTunes

marya111

100 | 13

5.59 ГБ

В этой теме нет новых непрочитанных сообщений. Сомния / Before I Wake [ужасы, фэнтези, триллер, драма, 2016] BDRip-AVC, Dub [iTunes]

salma3

315 | 46

1.42 ГБ

В этой теме нет новых непрочитанных сообщений. Сомния / Before I Wake [ужасы, фэнтези, триллер, драма, 2016] BDRip-AVC, Dub [iTunes]

salma3

129 | 22

2.14 ГБ

В этой теме нет новых непрочитанных сообщений. Не дыши / Don't Breathe (ужасы, триллер, 2016) BDRip 720p | iTunes

marya111

223 | 13

4.61 ГБ


Начать новую тему Ответить на тему  [ 1 сообщение ] 




Для Мосгорсуда, Роскомнадзора и рекламодателей:: mosgorsud-torrent[собачка]yandex.ru