Торрент файл
скачать торрент магнет ссылка Добавлен: 23 сен 2016, 11:50
Размер: 1.92 ГБ
Сидеров: 446
Личеров: 94
Статус: (salma3)
Автор

СообщениеДобавлено: 23 сен 2016, 11:50 

Не в сети
Супермодератор
Аватара пользователя
Дата регистрации:
15 фев 2012, 16:44
Возраст: 27
Спасибо: 5139 / 2089
Сообщения: 17425
Год выхода: 2016
Жанр: фантастика, фэнтези, боевик, комедия
Режиссер: Пол Фиг

В ролях: Мелисса МакКарти, Кристен Уиг, Кейт МакКиннон, Лесли Джонс, Крис Хемсворт, Сесили Стронг, Энди Гарсиа, Нил Кэйси, Чарльз Дэнс, Майкл Кеннет Уильямс

О фильме:
Тридцать лет назад охотники за привидениями спасли Нью-Йорк от нашествия призраков, но теперь городу вновь угрожает опасность. Былые герои не могут стать на его защиту, но находятся и другие отважные люди, всю свою жизнь посвятившие изучению паранормальных явлений. Эбби Йейтс объединяется с Эрин Гилберт, пожалуй лучшим специалистом в квантовой физике, и вместе они собирают команду новых охотников за привидениями, в которую принимают отличного инженера Джиллиан Хольцман, сотрудницу метрополитена Пэтти Толан, знающую город как свои пять пальцев, и секретаря — настоящего красавчика Кэвина. Вместе они начинают борьбу с нечистой силой, терроризирующей мегаполис…



Страна: США, Австралия
Продолжительность: 01:56:38
Перевод: Профессиональный (полное дублирование) [iTunes]

Файл
Кодек: x.264
Качество: WEB-DLRip-AVC
Видео: AVC, 1024x424 (2.40:1), 23.976 fps, 1 584 Kbps (0.152 bit/pixel)
Звук:
Аудио #1: AC-3, 48.0 KHz, 6 ch, 384 Kbps, CBR (Russian)
Аудио #2: AC-3, 48.0 KHz, 2 ch, 192 Kbps, CBR (Ukrainian)
Аудио #3: AC-3, 48.0 KHz, 2 ch, 192 Kbps, CBR (English)
Субтитры: Russian, Ukrainian, English

Общее
Уникальный идентификатор : 200454084142212973068165492061212768921 (0x96CE0D6458C7E0CFA6C89299C26BFA99)
Полное имя : Ghostbusters (2016) WEB-DLRip-AVC.mkv
Формат : Matroska
Версия формата : Version 4 / Version 2
Размер файла : 1,92 Гбайт
Продолжительность : 1 ч. 56 м.
Общий поток : 2351 Кбит/сек
Дата кодирования : UTC 2016-09-22 12:17:34
Программа кодирования : mkvmerge v8.3.0 ('Over the Horizon') 64bit
Библиотека кодирования : libebml v1.3.1 + libmatroska v1.4.2
Видео
Идентификатор : 1
Формат : AVC
Формат/Информация : Advanced Video Codec
Профиль формата : Main@L4.1
Параметр CABAC формата : Да
Параметр ReFrames формата : 8 кадров
Идентификатор кодека : V_MPEG4/ISO/AVC
Продолжительность : 1 ч. 56 м.
Битрейт : 1584 Кбит/сек
Ширина : 1024 пикселя
Высота : 424 пикселя
Соотношение сторон : 2,40:1
Режим частоты кадров : Переменный
Частота кадров : 23,976 (23976/1000) кадра/сек
Цветовое пространство : YUV
Субдискретизация насыщенности : 4:2:0
Битовая глубина : 8 бит
Тип развёртки : Прогрессивная
Бит/(Пиксели*Кадры) : 0.152
Размер потока : 1,29 Гбайт (67%)
Библиотека кодирования : x264 core 142 r2479 dd79a61
Настройки программы : cabac=1 / ref=8 / deblock=1:-1:-1 / analyse=0x1:0x131 / me=umh / subme=9 / psy=1 / psy_rd=1.00:0.15 / mixed_ref=1 / me_range=16 / chroma_me=1 / trellis=2 / 8x8dct=0 / cqm=0 / deadzone=21,11 / fast_pskip=1 / chroma_qp_offset=-3 / threads=12 / lookahead_threads=1 / sliced_threads=0 / nr=0 / decimate=1 / interlaced=0 / bluray_compat=0 / constrained_intra=0 / bframes=3 / b_pyramid=2 / b_adapt=2 / b_bias=0 / direct=3 / weightb=1 / open_gop=0 / weightp=2 / keyint=240 / keyint_min=24 / scenecut=40 / intra_refresh=0 / rc_lookahead=60 / rc=2pass / mbtree=1 / bitrate=1584 / ratetol=1.0 / qcomp=0.60 / qpmin=0 / qpmax=69 / qpstep=4 / cplxblur=20.0 / qblur=0.5 / vbv_maxrate=50000 / vbv_bufsize=62500 / nal_hrd=none / filler=0 / ip_ratio=1.40 / aq=1:1.00
Default : Да
Forced : Нет
Цветовой диапазон : Limited
Основные цвета : BT.709
Характеристики трансфера : BT.709
Коэффициенты матрицы : BT.709
Аудио #1
Идентификатор : 2
Формат : AC-3
Формат/Информация : Audio Coding 3
Расширение режима : CM (complete main)
Параметр Endianness формата : Big
Идентификатор кодека : A_AC3
Продолжительность : 1 ч. 56 м.
Вид битрейта : Постоянный
Битрейт : 384 Кбит/сек
Каналы : 6 каналов
Расположение каналов : Front: L C R, Side: L R, LFE
Частота : 48,0 КГц
Частота кадров : 31,250 кадров/сек (1536 spf)
Метод сжатия : С потерями
Задержка видео : -83 мс.
Размер потока : 319 Мбайт (16%)
Заголовок : DUB iTunes
Язык : Russian
Default : Да
Forced : Нет
Аудио #2
Идентификатор : 3
Формат : AC-3
Формат/Информация : Audio Coding 3
Расширение режима : CM (complete main)
Параметр Endianness формата : Big
Идентификатор кодека : A_AC3
Продолжительность : 1 ч. 56 м.
Вид битрейта : Постоянный
Битрейт : 192 Кбит/сек
Каналы : 2 канала
Расположение каналов : Front: L R
Частота : 48,0 КГц
Частота кадров : 31,250 кадров/сек (1536 spf)
Метод сжатия : С потерями
Задержка видео : -83 мс.
Размер потока : 159 Мбайт (8%)
Заголовок : DUB iTunes
Язык : Ukrainian
Default : Нет
Forced : Нет
Аудио #3
Идентификатор : 4
Формат : AC-3
Формат/Информация : Audio Coding 3
Расширение режима : CM (complete main)
Параметр Endianness формата : Big
Идентификатор кодека : A_AC3
Продолжительность : 1 ч. 56 м.
Вид битрейта : Постоянный
Битрейт : 192 Кбит/сек
Каналы : 2 канала
Расположение каналов : Front: L R
Частота : 48,0 КГц
Частота кадров : 31,250 кадров/сек (1536 spf)
Метод сжатия : С потерями
Задержка видео : -83 мс.
Размер потока : 159 Мбайт (8%)
Язык : English
Default : Нет
Forced : Нет
Текст #1
Идентификатор : 5
Формат : UTF-8
Идентификатор кодека : S_TEXT/UTF8
Идентификатор кодека/Информация : UTF-8 Plain Text
Продолжительность : 1 ч. 43 м.
Битрейт : 1 бит/сек
Count of elements : 28
Размер потока : 1,43 Кбайт (0%)
Заголовок : Forced, iTunes
Язык : Russian
Default : Да
Forced : Нет
Текст #2
Идентификатор : 6
Формат : UTF-8
Идентификатор кодека : S_TEXT/UTF8
Идентификатор кодека/Информация : UTF-8 Plain Text
Продолжительность : 1 ч. 55 м.
Битрейт : 119 бит/сек
Count of elements : 2042
Размер потока : 101 Кбайт (0%)
Заголовок : iTunes
Язык : Russian
Default : Нет
Forced : Нет
Текст #3
Идентификатор : 7
Формат : UTF-8
Идентификатор кодека : S_TEXT/UTF8
Идентификатор кодека/Информация : UTF-8 Plain Text
Продолжительность : 1 ч. 55 м.
Битрейт : 121 бит/сек
Count of elements : 2041
Размер потока : 102 Кбайт (0%)
Заголовок : iTunes
Язык : Ukrainian
Default : Нет
Forced : Нет
Текст #4
Идентификатор : 8
Формат : UTF-8
Идентификатор кодека : S_TEXT/UTF8
Идентификатор кодека/Информация : UTF-8 Plain Text
Продолжительность : 1 ч. 55 м.
Битрейт : 80 бит/сек
Count of elements : 2010
Размер потока : 67,9 Кбайт (0%)
Заголовок : iTunes
Язык : English
Default : Нет
Forced : Нет
Меню
00:00:00.000 : :1
00:08:23.378 : :2
00:15:20.837 : :3
00:19:58.323 : :4
00:25:26.985 : :5
00:33:55.035 : :6
00:39:03.218 : :7
00:45:23.390 : :8
00:51:50.193 : :9
00:56:32.434 : :10
01:01:51.503 : :11
01:07:03.189 : :12
01:15:42.375 : :13
01:23:29.426 : :14
01:32:40.727 : :15
01:42:48.668 : :16


_________________



реклама партнёра


Вернуться к началу
 Профиль Отправить личное сообщение  
 
   Похожие торренты   Автор   Торрент   Размер 
В этой теме нет новых непрочитанных сообщений. Охотники за привидениями / Ghostbusters [фантастика, фэнтези, боевик, комедия, 2016] WEB-DLRip, Dub [iTunes]

salma3

1946 | 54

1.46 ГБ

В этой теме нет новых непрочитанных сообщений. Охотники за привидениями / Ghostbusters [фантастика, фэнтези, боевик, комедия, 2016] WEB-DLRip, Dub [iTunes]

marya111

0 | 0

2.05 ГБ

В этой теме нет новых непрочитанных сообщений. Повторный Охотники за привидениями / Ghostbusters (Пол Фиг) [2016, фантастика, фэнтези, боевик, комедия, WEB-DLRip | iTunes] Dub Данный торрент является блокированным, причина: повторный торрент

marya111

273 | 1

1.45 ГБ

В этой теме нет новых непрочитанных сообщений. Охотники за привидениями / Ghostbusters [Фантастика, фэнтези, комедия, 2016] WEB-DLRip, Dub [iTunes]

marya111

0 | 0

747.79 МБ

В этой теме нет новых непрочитанных сообщений. Охотники за привидениями / Ghostbusters [фантастика, фэнтези, боевик, комедия, 2016] BDRip, Dub [iTunes]

marya111

332 | 19

1.41 ГБ

В этой теме нет новых непрочитанных сообщений. Охотники за привидениями / Ghostbusters [Фантастика, фэнтези, боевик, комедия, 2016] HDRip, dub [КПК] [iTunes]

marya111

138 | 9

524.49 МБ

В этой теме нет новых непрочитанных сообщений. Охотники за привидениями / Ghostbusters [Фантастика, фэнтези, боевик, комедия, 2016] BDRip 720p, Dub [iTunes]

marya111

389 | 40

4.88 ГБ


Начать новую тему Ответить на тему  [ 1 сообщение ] 




Для Мосгорсуда, Роскомнадзора и рекламодателей:: mosgorsud-torrent[собачка]yandex.ru