Торрент файл
скачать торрент магнет ссылка Добавлен: 22 сен 2016, 11:41
Размер: 1.46 ГБ
Сидеров: 653
Личеров: 14
Статус: (salma3)
Автор

СообщениеДобавлено: 22 сен 2016, 11:41 

В сети
Супермодератор
Аватара пользователя
Дата регистрации:
15 фев 2012, 16:44
Возраст: 27
Спасибо: 5134 / 2089
Сообщения: 17381
Перевод: Профессиональный (полное дублирование) [iTunes]
Субтитры: Отсутствуют
Формат: WEBDLRip, AVI, XviD, AC3
Страна: США
Режиссер: Дэвид Маккензи
Жанр: драма, криминал
Продолжительность: 01:37:43
Год выпуска: 2016

В ролях: Джефф Бриджес, Крис Пайн, Бен Фостер, Джил Бирмингем, Дейл Дикки, Уильям Стерчи, Бак Тейлор, Кристин Берг, Кит Мэривезер, Жакмо Буззел

Описание: Два брата-лузера решают наведаться в хранилища пары-тройки банков, которые много лет безбожно обкрадывают своих должников. Расследование дерзких ограблений с грубым почерком увенчает карьеру шерифа Маркуса. Но куда выведет это нехитрое дело?



Видео: 720x304 (2.37:1), 25. fps, XviD MPEG-4 ~1741 kbps avg, 0.318 bts/pxl
Аудио: 48kHz, AC3, 6 ch, 384 kbps avg
Доп. информация: Бюджет $12 000 000

General
Complete name : C:\Users\sakur\Videos\Hell or High Water [tfile.co].avi
Format : AVI
Format/Info : Audio Video Interleave
File size : 1.46 GiB
Duration : 1 h 37 min
Overall bit rate : 2 134 kb/s

Video
ID : 0
Format : MPEG-4 Visual
Format profile : Advanced Simple@L5
Format settings, BVOP : 1
Format settings, QPel : No
Format settings, GMC : No warppoints
Format settings, Matrix : Custom
Codec ID : XVID
Codec ID/Hint : XviD
Duration : 1 h 37 min
Bit rate : 1 742 kb/s
Width : 720 pixels
Height : 304 pixels
Display aspect ratio : 2.35:1
Frame rate : 25.000 FPS
Color space : YUV
Chroma subsampling : 4:2:0
Bit depth : 8 bits
Scan type : Progressive
Compression mode : Lossy
Bits/(Pixel*Frame) : 0.318
Stream size : 1.19 GiB (82%)
Writing library : XviD 73

Audio
ID : 1
Format : AC-3
Format/Info : Audio Coding 3
Mode extension : CM (complete main)
Format settings, Endianness : Big
Codec ID : 2000
Duration : 1 h 37 min
Bit rate mode : Constant
Bit rate : 384 kb/s
Channel(s) : 6 channels
Channel positions : Front: L C R, Side: L R, LFE
Sampling rate : 48.0 kHz
Frame rate : 31.250 FPS (1536 spf)
Compression mode : Lossy
Stream size : 268 MiB (18%)
Alignment : Aligned on interleaves
Interleave, duration : 64 ms (1.60 video frames)
Interleave, preload duration : 192 ms
Title : iTunes





_________________



реклама партнёра


Вернуться к началу
 Профиль Отправить личное сообщение  
 
   Похожие торренты   Автор   Торрент   Размер 
В этой теме нет новых непрочитанных сообщений. Любой ценой / Hell or High Water [Драма, криминал, 2016] WEB-DL 720p, Dub [iTunes]

marya111

483 | 25

3 ГБ

В этой теме нет новых непрочитанных сообщений. Любой ценой / Hell or High Water [драма, криминал, 2016] HDRip, Dub [iTunes]

marya111

5348 | 640

1.45 ГБ

В этой теме нет новых непрочитанных сообщений. Любой ценой / Hell or High Water [драма, криминал, 2016] WEB-DL 1080p, Dub [iTunes]

marya111

0 | 0

3.48 ГБ

В этой теме нет новых непрочитанных сообщений. Любой ценой / Hell or High Water [Драма, криминал, 2016] WEB-DLRip-AVC, Dub [iTunes]

marya111

167 | 9

749.82 МБ

В этой теме нет новых непрочитанных сообщений. Любой ценой / Hell or High Water [драма, криминал, 2016] WEB-DLRip-AVC, Dub [iTunes]

salma3

1517 | 57

1.41 ГБ

В этой теме нет новых непрочитанных сообщений. Любой ценой / Hell or High Water [драма, криминал, 2016] HDRip, Dub [iTunes]

marya111

217 | 34

745.48 МБ

В этой теме нет новых непрочитанных сообщений. Любой ценой / Hell or High Water [Драма, криминал, 2016] WEB-DLRip, Dub [iTunes]

marya111

0 | 0

743.89 МБ


Начать новую тему Ответить на тему  [ 1 сообщение ] 




Для Мосгорсуда, Роскомнадзора и рекламодателей:: mosgorsud-torrent[собачка]yandex.ru