Торрент файл
скачать торрент магнет ссылка Добавлен: 06 янв 2017, 12:48
Размер: 1.6 ГБ
Сидеров: 403
Личеров: 43
Статус: (salma3)
Автор

СообщениеДобавлено: 21 сен 2016, 11:36 

В сети
Супермодератор
Аватара пользователя
Дата регистрации:
15 фев 2012, 16:44
Возраст: 27
Спасибо: 6143 / 2121
Сообщения: 31299
Год выхода: 2016
Жанр: ужасы, триллер, криминал
Режиссер: Маркус Данстэн

В ролях: Джош Стюарт Билл Ингвалл Александра Эссоу Жаклин Флеминг Люк Эдвардс Melissa Bolona Скипп Саддат Ронни Джин Блевинс Хезер Уильямс Дэвид Каллауэй

О фильме: У каждого человека есть свои скелеты в шкафу. Наркокурьер, переехав в новый дом, знакомится со своим соседом, у которого скелеты оказались не в шкафу, а подвале.



Страна: США / Fortress Features, Salt Company International, The
Продолжительность: 01:24:33
Перевод: Дублированный [iTunes]

Файл
Качество: BDRip (AVC)
Видео: MPEG-4 AVC, 1810 Kбит/с, 1024x428
Аудио: Русский (AC3, 6 ch, 384 Кбит/с), английский (AC3, 6 ch, 448 Кбит/с)
Субтитры: Английские

General
Unique ID : 180531155586475490033094035112487590020 (0x87D1092D108EBD6F9E4FC07C01609884)
Complete name : D:The.Neighbor.2016.D.BDRip.AVC.ExKinoRay.mkv
Format : Matroska
Format version : Version 2
File size : 1.60 GiB
Duration : 1 h 26 min
Overall bit rate : 2 635 kb/s
Movie name : Соседи 2016 from ExKinoRay
Encoded date : UTC 2017-01-05 05:23:01
Writing application : mkvmerge v7.6.0 ('Garden of Dreams') 32bit built on Feb 11 2015 00:18:47
Writing library : libebml v1.3.1 + libmatroska v1.4.2

Video
ID : 1
Format : AVC
Format/Info : Advanced Video Codec
Format profile : High@L4.1
Format settings, CABAC : Yes
Format settings, ReFrames : 14 frames
Codec ID : V_MPEG4/ISO/AVC
Duration : 1 h 26 min
Bit rate : 1 810 kb/s
Width : 1 024 pixels
Height : 428 pixels
Display aspect ratio : 2.40:1
Frame rate mode : Constant
Frame rate : 23.976 (24000/1001) FPS
Color space : YUV
Chroma subsampling : 4:2:0
Bit depth : 8 bits
Scan type : Progressive
Bits/(Pixel*Frame) : 0.172
Stream size : 1.06 GiB (66%)
Title : Enigma
Writing library : x264 core 144 r2525 40bb568
Encoding settings : cabac=1 / ref=14 / deblock=1:-2:-2 / analyse=0x3:0x113 / me=umh / subme=10 / psy=1 / psy_rd=1.05:0.10 / mixed_ref=1 / me_range=32 / chroma_me=1 / trellis=2 / 8x8dct=1 / cqm=0 / deadzone=21,11 / fast_pskip=1 / chroma_qp_offset=-3 / threads=12 / lookahead_threads=3 / sliced_threads=0 / nr=0 / decimate=1 / interlaced=0 / bluray_compat=0 / constrained_intra=0 / bframes=11 / b_pyramid=2 / b_adapt=2 / b_bias=0 / direct=3 / weightb=1 / open_gop=0 / weightp=2 / keyint=240 / keyint_min=23 / scenecut=40 / intra_refresh=0 / rc_lookahead=40 / rc=2pass / mbtree=0 / bitrate=1810 / ratetol=1.0 / qcomp=0.60 / qpmin=0 / qpmax=51 / qpstep=4 / cplxblur=20.0 / qblur=0.5 / vbv_maxrate=50000 / vbv_bufsize=62500 / nal_hrd=none / filler=0 / ip_ratio=1.40 / pb_ratio=1.30 / aq=1:1.00
Language : English
Default : Yes
Forced : No
Color range : Limited
Color primaries : BT.709
Transfer characteristics : BT.709
Matrix coefficients : BT.709

Audio #1
ID : 2
Format : AC-3
Format/Info : Audio Coding 3
Mode extension : CM (complete main)
Format settings, Endianness : Big
Codec ID : A_AC3
Duration : 1 h 26 min
Bit rate mode : Constant
Bit rate : 384 kb/s
Channel(s) : 6 channels
Channel positions : Front: L C R, Side: L R, LFE
Sampling rate : 48.0 kHz
Frame rate : 31.250 FPS (1536 spf)
Compression mode : Lossy
Stream size : 239 MiB (15%)
Title : Dub ()
Language : Russian
Default : Yes
Forced : No

Audio #2
ID : 3
Format : AC-3
Format/Info : Audio Coding 3
Mode extension : CM (complete main)
Format settings, Endianness : Big
Codec ID : A_AC3
Duration : 1 h 26 min
Bit rate mode : Constant
Bit rate : 448 kb/s
Channel(s) : 6 channels
Channel positions : Front: L C R, Side: L R, LFE
Sampling rate : 48.0 kHz
Frame rate : 31.250 FPS (1536 spf)
Compression mode : Lossy
Stream size : 279 MiB (17%)
Language : English
Default : No
Forced : No

Text
ID : 4
Format : UTF-8
Codec ID : S_TEXT/UTF8
Codec ID/Info : UTF-8 Plain Text
Language : English
Default : No
Forced : No

Menu
00:00:00.000 : en:Chapter 1
00:08:05.485 : en:Chapter 2
00:15:12.328 : en:Chapter 3
00:22:33.769 : en:Chapter 4
00:28:50.312 : en:Chapter 5
00:37:03.972 : en:Chapter 6
00:47:26.427 : en:Chapter 7
00:52:43.660 : en:Chapter 8
01:00:28.166 : en:Chapter 9
01:09:35.421 : en:Chapter 10
01:17:19.009 : en:Chapter 11
01:22:54.428 : en:Chapter 12

Релиз от:


_________________
Проголосуй за трекер Открытый торрент трекер - RUS-MEDIA.ORG

Проголосуй Открытый торрент трекер - RUS-MEDIA.ORG



реклама партнёра


Вернуться к началу
 Профиль Отправить личное сообщение  
 
   Похожие торренты   Автор   Торрент   Размер 
В этой теме нет новых непрочитанных сообщений. Сосед / The Neighbor [ужасы, триллер, криминал, 2016] HDRip, Dub [iTunes]

salma3

452 | 105

1.37 ГБ

В этой теме нет новых непрочитанных сообщений. Дом напротив / Сосед / The Neighbor [Ужасы, триллер, криминал, 2016] BDRip 1080p, Dub [iTunes]

salma3

336 | 81

8.66 ГБ

В этой теме нет новых непрочитанных сообщений. Дом напротив / Сосед / The Neighbor [Ужасы, триллер, криминал, 2016] BDRemux 1080p, Dub [iTunes]

salma3

36 | 16

15.47 ГБ

В этой теме нет новых непрочитанных сообщений. Дом напротив / Сосед / The Neighbor [Ужасы, триллер, криминал, 2016] BDRip 720p, Dub [iTunes]

salma3

549 | 82

4.24 ГБ

В этой теме нет новых непрочитанных сообщений. Повторный Сосед / The Neighbor (Маркус Данстэн) [2016, ужасы, триллер, криминал, WEB-DLRip] avo Данный торрент является блокированным, причина: повторный торрент

marya111

0 | 0

1.36 ГБ

В этой теме нет новых непрочитанных сообщений. Хороший сосед / The Good Neighbor [триллер, 2016] HDRip, Avo

marya111

23 | 7

1.51 ГБ

В этой теме нет новых непрочитанных сообщений. Соседка / Сосед / The Neighbor [Ужасы, триллер, 1993] DVDRip, Avo

salma3

18 | 6

1.45 ГБ


СообщениеДобавлено: 06 янв 2017, 12:49 

В сети
Супермодератор
Аватара пользователя
Дата регистрации:
15 фев 2012, 16:44
Возраст: 27
Спасибо: 6143 / 2121
Сообщения: 31299
salma3 писал(а):
Re: Сосед / The Neighbor [ужасы, триллер, криминал, 2016] WEB-DLRip-AVC, Dub [iTunes]

_________________
Проголосуй за трекер Открытый торрент трекер - RUS-MEDIA.ORG

Проголосуй Открытый торрент трекер - RUS-MEDIA.ORG


Вернуться к началу
 Профиль Отправить личное сообщение  
 
Начать новую тему Ответить на тему  [ Сообщений: 2 ] 




Для Мосгорсуда, Роскомнадзора и рекламодателей:: mosgorsud-torrent[собачка]yandex.ru