Торрент файл
скачать торрент магнет ссылка Добавлен: 21 сен 2016, 11:33
Размер: 1.37 ГБ
Сидеров: 95
Личеров: 24
Статус: (salma3)
Автор

СообщениеДобавлено: 21 сен 2016, 11:33 

Не в сети
Супермодератор
Аватара пользователя
Дата регистрации:
15 фев 2012, 16:44
Возраст: 27
Спасибо: 5143 / 2090
Сообщения: 17478
Год выхода: 2014
Жанр: драма, приключения, семейный, фэнтези
Режиссер: Лиза Мулкахи

В ролях: Люси Мортон, Лоркан Боннер, Брендан Конрой, Лоркан Кранич, Стивен Кромуэлл, Кейт Гилмор, Фиона Глэскотт, Скотт Грэхэм, Бен Харт, Арт Кернс, Шана Керслэйк, Аарон Кинселла, Шон Махон, Мириам Маргулис, Текла Рютен

О фильме:
12-летняя Микки Миллер переезжает из Нью-Йорка в маленький городок в Ирландии. И хотя поначалу ей там совсем не нравится, со временем она узнаёт, что поселение окружает клубок тайн, и только она может разрушить проклятие Лонгвуда.



Производство: Нидерланды, Ирландия, Германия / Fish Blowing Bubbles, Grand Pictures
Продолжительность: 01:34:16
Перевод: профессиональный (многолосый закадровый) [официальный звук]

Файл
Качество: HDTVRip
Формат: AVI
Видео: XviD, 720x304 (2.35:1), 25.000 fps, 1874 kbps, 0.342 bit/pixel
Аудио: русский, AC3 2.0, 48 kHz, 192 kbps

Формат : AVI
Формат/Информация : Audio Video Interleave
Размер файла : 1,37 Гбайт
Продолжительность : 1 ч. 34 м.
Общий поток : 2076 Кбит/сек
Программа кодирования : VirtualDubMod 1.5.10.2 (build 2540/release)
Библиотека кодирования : VirtualDubMod build 2540/release
Видео
Идентификатор : 0
Формат : MPEG-4 Visual
Профиль формата : Advanced Simple@L5
Параметр BVOP формата : 2
Параметр QPel формата : Нет
Параметр GMC формата : Без точки перехода
Параметр матрицы формата : Default (MPEG)
Идентификатор кодека : XVID
Идентификатор кодека/Подсказка : XviD
Продолжительность : 1 ч. 34 м.
Битрейт : 1874 Кбит/сек
Ширина : 720 пикселей
Высота : 304 пикселя
Соотношение сторон : 2,35:1
Частота кадров : 25,000 кадров/сек
Цветовое пространство : YUV
Субдискретизация насыщенности : 4:2:0
Битовая глубина : 8 бит
Тип развёртки : Прогрессивная
Метод сжатия : С потерями
Бит/(Пиксели*Кадры) : 0.342
Размер потока : 1,23 Гбайт (90%)
Библиотека кодирования : XviD 1.2.1 (UTC 2008-12-04)
Аудио
Идентификатор : 1
Формат : AC-3
Формат/Информация : Audio Coding 3
Расширение режима : CM (complete main)
Параметр Endianness формата : Big
Идентификатор кодека : 2000
Продолжительность : 1 ч. 34 м.
Вид битрейта : Постоянный
Битрейт : 192 Кбит/сек
Каналы : 2 канала
Расположение каналов : Front: L R
Частота : 48,0 КГц
Метод сжатия : С потерями
Размер потока : 129 Мбайт (9%)
Выравнивание : Разделение по промежуткам
Продолжительность промежутка : 40 мс. (1,00 видеокадр)
Время предзагрузки промежутка : 500 мс.


_________________



реклама партнёра


Вернуться к началу
 Профиль Отправить личное сообщение  
 
   Похожие торренты   Автор   Торрент   Размер 
В этой теме нет новых непрочитанных сообщений. Феи: Легенда о чудовище / Legend of the NeverBeast (Стив Лотер) [мультфильм, фэнтези, приключения, семейный, 2014] HDRip, dub [чистый звук]

Dracon

565 | 5

1.37 ГБ

В этой теме нет новых непрочитанных сообщений. Феи: Легенда о чудовище / Legend of the NeverBeast (Стив Лотер) [мультфильм, фэнтези, приключения, семейный, 2014] BDRip 1080p, dub [чистый звук]

Dracon

92 | 6

4.58 ГБ

В этой теме нет новых непрочитанных сообщений. Феи: Легенда о чудовище / Legend of the NeverBeast (Стив Лотер) [мультфильм, фэнтези, приключения, семейный, 2014] BDRip 720p, dub [чистый звук]

Dracon

39 | 4

2.39 ГБ

В этой теме нет новых непрочитанных сообщений. Феи: Легенда о чудовище / Tinkerbell And The Legend Of The Neverbeast (Стив Лотер) [мультфильм, фэнтези, приключения, семейный, 2014] BDRemux 1080p, dub [чистый звук]

Dracon

3 | 3

20.87 ГБ

В этой теме нет новых непрочитанных сообщений. Феи: Легенда о чудовище / Legend of the NeverBeast (Стив Лотер) [мультфильм, фэнтези, приключения, семейный, 2014] BDRip-AVC, Dub+Sub [Лицензия]

Dracon

233 | 4

1.77 ГБ

В этой теме нет новых непрочитанных сообщений. Феи: Легенда о чудовище / Legend of the NeverBeast (Стив Лотер) [мультфильм, фэнтези, приключения, семейный, 2014] Blu-Ray 1080p, Dub+Sub [Лицензия]

Dracon

7 | 4

30.33 ГБ

В этой теме нет новых непрочитанных сообщений. Феи: Легенда о чудовище / Legend of the NeverBeast (Стив Лотер) [мультфильм, фэнтези, приключения, семейный, 2014] HDRip, Dub [iTunes Russia]

Dracon

295 | 10

1.37 ГБ


Начать новую тему Ответить на тему  [ 1 сообщение ] 




Для Мосгорсуда, Роскомнадзора и рекламодателей:: mosgorsud-torrent[собачка]yandex.ru