Торрент файл
скачать торрент магнет ссылка Добавлен: 19 сен 2016, 11:17
Размер: 736.42 МБ
Сидеров: 8
Личеров: 5
Статус: (salma3)
Автор

СообщениеДобавлено: 19 сен 2016, 11:17 

Не в сети
Супермодератор
Аватара пользователя
Дата регистрации:
15 фев 2012, 16:44
Возраст: 28
Спасибо: 6403 / 2128
Сообщения: 37737
Страна: США
Производство: Nice Girls Films
Год выпуска: 1987
Жанр: фантастика, мелодрама, комедия
Продолжительность: 01:18:36
Режиссер: Чак Мартинес
Автор сценария: Пол Харрис

В ролях: Барбара Харрис, Мишель Майринк, Уильям О’Лири, Уоллес Шоун, Джеймс Нардини, Белинда Уэллс, Ирвин Кийес, Марго Грэй

Описание: Мама девушки Эйприл разработала сложную схему, чтобы оградить свою дочь от мужчин и секса. Каждый раз, когда Эйприл попадает в интимную обстановку, её мамочка устраивает дистанционно управляемые взрывы, чтобы отпугнуть дочку от назревающего контакта. В конце концов Энди, друг детства Эйприл скептически относящийся к её предполагаемой взрывоопасности, доказывает девушке, что дело вовсе не в ней, а в её матери, которая собственноручно делает зажигательные бомбы…



Перевод: Профессиональный (двухголосый, закадровый) | REN-TV
Роли озвучивали: Игорь Тарадайкин и Ирина Савина
Субтитры: нет


Качество: DVDRip
Формат: AVI
Видео кодек: XviD
Аудио кодек: АС3
Видео: 672x514 (4:3), 29.970 fps, XviD ~1 106 kbps avg
Аудио: 48.0 kHz, AC3 Dolby Digital, 2/0 (L,R) ch, ~192 kbps avg
Дата премьеры (мир): 15 октября 1987

Релиз от: JUSTKANT
Благодарность за предоставление аудиодорожки: SuperDVD01
General
Complete name : Девчонка с огоньком (REN-TV).avi
Format : AVI
Format/Info : Audio Video Interleave
File size : 736 MiB
Duration : 1 h 18 min
Overall bit rate : 1 310 kb/s
Movie name : Девчонка с огоньком / Хорошие девочки не взрываются / Nice Girls Don't Explode (REN-TV/ТНТ)
Director : JUSTKANT
Writing application : VirtualDubModRus 1.5.10.2 (build 2542/release)
Copyright : На русский язык фильм озвучен телекомпанией REN-TV
Comment : Качество звука: TVRip (от SuperDVD01)
Video
ID : 0
Format : MPEG-4 Visual
Format profile : Simple@L3
Format settings, BVOP : No
Format settings, QPel : No
Format settings, GMC : No warppoints
Format settings, Matrix : Default (H.263)
Codec ID : XVID
Codec ID/Hint : XviD
Duration : 1 h 18 min
Bit rate : 1 106 kb/s
Width : 672 pixels
Height : 514 pixels
Display aspect ratio : 4:3
Frame rate : 29.970 (30000/1001) FPS
Color space : YUV
Chroma subsampling : 4:2:0
Bit depth : 8 bits
Scan type : Progressive
Compression mode : Lossy
Bits/(Pixel*Frame) : 0.107
Stream size : 622 MiB (84%)
Writing library : XviD 1.1.2 (UTC 2006-11-01)
Audio
ID : 1
Format : AC-3
Format/Info : Audio Coding 3
Mode extension : CM (complete main)
Format settings, Endianness : Big
Codec ID : 2000
Duration : 1 h 18 min
Bit rate mode : Constant
Bit rate : 192 kb/s
Channel(s) : 2 channels
Channel positions : Front: L R
Sampling rate : 48.0 kHz
Frame rate : 31.250 FPS (1536 spf)
Compression mode : Lossy
Delay relative to video : 150 ms
Stream size : 108 MiB (15%)
Alignment : Split accross interleaves
Interleave, duration : 33 ms (1.00 video frame)
Interleave, preload duratio : 500 ms
Title : REN-TV/ТНТ: Игорь Тарадайкин и Ирина Савина



_________________
Проголосуй за трекер Открытый торрент трекер - RUS-MEDIA.ORG

Проголосуй Открытый торрент трекер - RUS-MEDIA.ORG



реклама партнёра


Вернуться к началу
 Профиль Отправить личное сообщение  
 
   Похожие торренты   Автор   Торрент   Размер 
В этой теме нет новых непрочитанных сообщений. Очень хорошие девочки / Very Good Girls (Наоми Фонер) [Драма, 2013] BDRip 1080p, Mvo [лицензия]

Dracon

1 | 5

6.83 ГБ

В этой теме нет новых непрочитанных сообщений. Девочки хотят повеселиться / Girls Just Want to Have Fun [мелодрама, комедия, музыка, 1985] BDRip 1080p, Dvo

salma3

16 | 7

9.44 ГБ

В этой теме нет новых непрочитанных сообщений. Девочки из календаря / Calendar Girls [драма, комедия, 2003] DVDRip, Mvo [НТВ+]

salma3

32 | 3

1.46 ГБ

В этой теме нет новых непрочитанных сообщений. Девочки Гилмор: Год из жизни / Времена года / Gilmore Girls: A Year in the Life / [S01] [комедия, мелодрама, семейный, 2016] WEB-DLRip, Mvo [NewStudio]

salma3

87 | 41

3.55 ГБ

В этой теме нет новых непрочитанных сообщений. Girls Love Girls 3 / Девочки Любят Девочек 3 (Sunlust Pictures) [2015 г., WEBRip]

max77777

1 | 0

1.47 ГБ

В этой теме нет новых непрочитанных сообщений. Пляжные девочки / The Beach Girls [комедия, 1982] BDRip 720p, Dvo

salma3

194 | 143

7.91 ГБ

В этой теме нет новых непрочитанных сообщений. Diamond Kitty - Соблазнительные Девочки 3 / Curvy Girls 3 (2009) DVDRip

salma3

4 | 2

438.2 МБ


Начать новую тему Ответить на тему  [ 1 сообщение ] 




Для Мосгорсуда, Роскомнадзора и рекламодателей:: mosgorsud-torrent[собачка]yandex.ru