Торрент файл
скачать торрент магнет ссылка Добавлен: 03 сен 2016, 11:55
Размер: 2.94 ГБ
Сидеров: 626
Личеров: 35
Статус: (salma3)
Автор

СообщениеДобавлено: 03 сен 2016, 11:55 

Не в сети
Супермодератор
Аватара пользователя
Дата регистрации:
15 фев 2012, 16:44
Возраст: 27
Спасибо: 5139 / 2089
Сообщения: 17411
Перевод: Любительский (многоголосый) @MUZOBOZ@
Субтитры: отсутствуют
Формат: WEB-DL, MKV, H.264, AC3
Страна: США
Режиссер: Джон Стокуэлл
Жанр: боевик
Продолжительность: 01:30:44
Год выпуска: 2016

В ролях: Ален Мусси, Жорж Сен-Пьер, Жан-Клод Ван Дамм, Т.Дж. Сторм, Мэттью Зифф, Сэм Медина, Дэйв Батиста, Сью-Линн Ансари, Даррен Шалави, Джина Карано, Хоун Трэн

Описание: Сюжет разворачивается вокруг братьев из калифорнийской династии бойцов Дэвида и Курта Слоан. Дэвид погибает в одном из поединков в Гонконге. Узнав об этом, Курт едет в Таиланд к своему наставнику, с помощью которого рассчитывает обрести силу воли, чтобы отомстить за смерть брата.



Видео: 1920x800p (2.40:1), 23.976 fps, AVC MPEG-4 (H.264), ~4246 kbps, 0.115 bit/pixel
Аудио: Русский: 48 kHz, AC3 Dolby Digital, 2 ch, ~384 kbps [Любительский (многоголосый)]

Доп. информация: Присутствует реклама. Ремейк одноименного фильма 1989 г.

Общее
Уникальный идентификатор : 206295712974909459215704478391382398040 (0x9B331BEE16F12F838D8FFC6C69255458)
Полное имя : D:\Downloads\Kickboxer.Vengeance.2016.P.WEB-DL.1O8Op_KOSHARA.mkv
Формат : Matroska
Версия формата : Version 2
Размер файла : 2,94 Гбайт
Длительность : 1 ч. 30 м.
Режим общего битрейта : Постоянный
Общий поток : 4632 Кбит/сек
Дата кодирования : UTC 2016-09-02 17:35:26
Программа кодирования : mkvmerge v8.3.0 ('Over the Horizon') 64bit
Библиотека кодирования : libebml v1.3.1 + libmatroska v1.4.2

Видео
Идентификатор : 1
Формат : AVC
Формат/Информация : Advanced Video Кодек
Профиль формата :
Параметр CABAC формата : Да
Параметр ReFrames формата : 5 кадров
Идентификатор кодека : V_MPEG4/ISO/AVC
Длительность : 1 ч. 30 м.
Вид битрейта : Постоянный
Битрейт : 4246 Кбит/сек
Номинальный битрейт : 4600 Кбит/сек
Ширина : 1920 пикселей
Высота : 800 пикселей
Соотношение сторон : 2,40:1
Режим частоты кадров : Постоянный
Частота кадров : 23,976 (24000/1001) кадра/сек
Стандарт вещания : Component
Цветовое пространство : YUV
Субдискретизация насыщенности : 4:2:0
Битовая глубина : 8 бит
Тип развёртки : Прогрессивная
Бит/(Пиксели*Кадры) : 0.115
Размер потока : 2,69 Гбайт (92%)
Default : Да
Forced : Нет
Цветовой диапазон : Limited
Основные цвета : BT.709
Характеристики трансфера : BT.709
Коэффициенты матрицы : BT.709

Аудио
Идентификатор : 2
Формат : AC-3
Формат/Информация : Audio Coding 3
Расширение режима : CM (complete main)
Параметр Endianness формата : Big
Идентификатор кодека : A_AC3
Длительность : 1 ч. 30 м.
Вид битрейта : Постоянный
Битрейт : 384 Кбит/сек
Каналы : 2 канала
Расположение каналов : Front: L R
Частота : 48,0 КГц
Частота кадров : 31,250 кадров/сек (1536 spf)
Метод сжатия : С потерями
Размер потока : 249 Мбайт (8%)
Default : Да
Forced : Нет





_________________



реклама партнёра


Вернуться к началу
 Профиль Отправить личное сообщение  
 
   Похожие торренты   Автор   Торрент   Размер 
В этой теме нет новых непрочитанных сообщений. Кикбоксер / Kickboxer Vengeance (Боевик, 2016) BDRip 1080p | L

marya111

0 | 0

7.55 ГБ

В этой теме нет новых непрочитанных сообщений. Кикбоксер / Kickboxer Vengeance (Боевик, 2016) BDRemux 1080p от ExKinoRay | L

marya111

0 | 0

16.56 ГБ

В этой теме нет новых непрочитанных сообщений. Кикбоксер / Kickboxer [боевик, 2016] WEBRip, Mvo

salma3

3434 | 102

1.37 ГБ

В этой теме нет новых непрочитанных сообщений. Кикбоксер / Kickboxer [боевик, 2016] WEB-DLRip-AVC, Mvo

salma3

170 | 5

2.79 ГБ

В этой теме нет новых непрочитанных сообщений. Недооформлен Кикбоксер / Kickboxer ( боевик, 2016) HDRip | L Данный торрент является блокированным, причина: недооформленный торрент

marya111

0 | 0

1.37 ГБ

В этой теме нет новых непрочитанных сообщений. Недооформлен Кикбоксер / Kickboxer (Боевик, 2016) HDRip от MegaPeer | L Данный торрент является блокированным, причина: недооформленный торрент

marya111

0 | 0

746.67 МБ

В этой теме нет новых непрочитанных сообщений. Кикбоксер / Kickboxer Vengeance (Боевик, 2016) BDRip 720p от ExKinoRay | L

marya111

0 | 0

3.22 ГБ


Начать новую тему Ответить на тему  [ 1 сообщение ] 




Для Мосгорсуда, Роскомнадзора и рекламодателей:: mosgorsud-torrent[собачка]yandex.ru