Торрент файл
скачать торрент магнет ссылка Добавлен: 03 сен 2016, 11:52
Размер: 2.79 ГБ
Сидеров: 170
Личеров: 5
Статус: (salma3)
Автор

СообщениеДобавлено: 03 сен 2016, 11:52 

Не в сети
Супермодератор
Аватара пользователя
Дата регистрации:
15 фев 2012, 16:44
Возраст: 27
Спасибо: 5121 / 2089
Сообщения: 17296
Перевод: Любительский (многоголосый) @MUZOBOZ@, субтитры: отсутствуют
Формат: WEB-DLRip-AVC, MKV, H.264, AC3
Страна: США
Режиссер: Джон Стокуэлл
Жанр: боевик
Продолжительность: 01:30:44
Год выпуска: 2016

В ролях: Ален Мусси, Жорж Сен-Пьер, Жан-Клод Ван Дамм, Т.Дж. Сторм, Мэттью Зифф, Сэм Медина, Дэйв Батиста, Сью-Линн Ансари, Даррен Шалави, Джина Карано, Хоун Трэн

Описание: Сюжет разворачивается вокруг братьев из калифорнийской династии бойцов Дэвида и Курта Слоан. Дэвид погибает в одном из поединков в Гонконге. Узнав об этом, Курт едет в Таиланд к своему наставнику, с помощью которого рассчитывает обрести силу воли, чтобы отомстить за смерть брата.



Видео: 1280x536 (2.40:1), 23.976 fps, AVC MPEG-4 (H.264), ~4000 kbps, 0.244 bit/pixel
Аудио: 48 kHz, AC3 Dolby Digital, 2/0 (L,R) ch, ~384 kbps

Доп. информация: Присутствует реклама. Ремейк одноименного фильма 1989 г. СЭМПЛ

General
Unique ID Kickboxer.2016.WEB-DL.72Op.mkv
Формат : Matroska
Формат version : Version 2
Размер файла : 2.79 GiB
Длительность : 1 h 30 min
Общий Битрейт mode : Constant
Общий Битрейт : 4 384 kb/s
Encoded date : UTC 2016-09-02 17:34:10
Создано приложением : mkvmerge v8.3.0 ('Over the Horizon') 64bit
Writing library : libebml v1.3.1 + libmatroska v1.4.2

Video
ID : 1
Формат : AVC
Формат/Info : Advanced Video Кодек
Формат profile :
Формат настройки, CABAC : Yes
Формат настройки, ReFrames : 12 frames
Кодек ID : V_MPEG4/ISO/AVC
Длительность : 1 h 30 min
Битрейт mode : Constant
Битрейт : 4 000 kb/s
Nominal Битрейт : 4 300 kb/s
Width : 1 280 пикселей
Высота : 536 пикселей
Соотношение кадра : 2.40:1
Частота кадров mode : Constant
Частота кадров : 23.976 (24000/1001) FPS
Standard : Component
Цветопередача : YUV
Chroma subsampling : 4:2:0
Разрядность : 8 bits
Тип сканирования : Progressive
Bits/(Pixel*Frame) : 0.244
Размер потока : 2.54 GiB (91%)
Default : Yes
Forced : No
Color range : Limited
Color primaries : BT.709
Transfer characteristics : BT.709
Matrix coefficients : BT.709

Audio
ID : 2
Формат : AC-3
Формат/Info : Audio Coding 3
Расширение режима : CM (complete main)
Формат настройки, Endianness : Big
Кодек ID : A_AC3
Длительность : 1 h 30 min
Битрейт mode : Constant
Битрейт : 384 kb/s
Channel(s) : 2 канала
Channel positions : Front: L R
Частота : 48.0 kHz
Частота кадров : 31.250 FPS (1536 spf)
Режим сжатия : Lossy
Размер потока : 249 MiB (9%)
Default : Yes
Forced : No





_________________



реклама партнёра


Вернуться к началу
 Профиль Отправить личное сообщение  
 
   Похожие торренты   Автор   Торрент   Размер 
В этой теме нет новых непрочитанных сообщений. Кикбоксер / Kickboxer [боевик, 2016] WEBRip, Mvo

salma3

3434 | 102

1.37 ГБ

В этой теме нет новых непрочитанных сообщений. Кикбоксер / Kickboxer [боевик, 2016] WEB-DL 1080p, Mvo

salma3

626 | 35

2.94 ГБ

В этой теме нет новых непрочитанных сообщений. Недооформлен Кикбоксер / Kickboxer ( боевик, 2016) HDRip | L Данный торрент является блокированным, причина: недооформленный торрент

marya111

0 | 0

1.37 ГБ

В этой теме нет новых непрочитанных сообщений. Недооформлен Кикбоксер / Kickboxer (Боевик, 2016) HDRip от MegaPeer | L Данный торрент является блокированным, причина: недооформленный торрент

marya111

0 | 0

746.67 МБ

В этой теме нет новых непрочитанных сообщений. Кикбоксер / Kickboxer Vengeance (Боевик, 2016) BDRip 1080p | L

marya111

0 | 0

7.55 ГБ

В этой теме нет новых непрочитанных сообщений. Кикбоксер / Kickboxer Vengeance (Боевик, 2016) BDRip 720p от ExKinoRay | L

marya111

0 | 0

3.22 ГБ

В этой теме нет новых непрочитанных сообщений. Кикбоксер / Kickboxer Vengeance (Боевик, 2016) BDRemux 1080p от ExKinoRay | L

marya111

0 | 0

16.56 ГБ


Начать новую тему Ответить на тему  [ 1 сообщение ] 




Для Мосгорсуда, Роскомнадзора и рекламодателей:: mosgorsud-torrent[собачка]yandex.ru