Торрент файл
скачать торрент магнет ссылка Добавлен: 01 сен 2016, 11:43
Размер: 3.21 ГБ
Сидеров: 10
Личеров: 3
Статус: (salma3)
Автор

СообщениеДобавлено: 01 сен 2016, 11:43 

В сети
Супермодератор
Аватара пользователя
Дата регистрации:
15 фев 2012, 16:44
Возраст: 27
Спасибо: 5139 / 2089
Сообщения: 17421
Год выхода: 1994
Страна: США
Продолжительность: 01:41:20
Жанр: комедия, приключения
Режиссер: Деннис Хоппер

В ролях: Том Беренджер, Эрика Элениак, Уильям МакНамара, Гэри Бьюзи, Фредерик Форрест, Криспин Гловер, Марилу Хеннер, Дин Стокуэлл, Грэнд Л. Буш, Мэттью Глэйв, Битти Шрэм, Сеймур Кэссел, Деннис Хоппер, ...

Перевод:
- Профессиональный (дублированный) Варус-видео
- Профессиональный (двуголосый, закадровый) Екатеринбург-Арт
- Профессиональный (многоголосный, закадровый) Ren TV (ТНТ, ДТВ)
- Авторский (одноголосый, закадровый) Михалёв Алексей Михайлович
- Авторский (одноголосый, закадровый) Пронин Антон

О фильме: Офицер берегового патруля военно-морских сил Рок Рилли думал, что его уже ничем не удивишь. Его свежеиспеченному напарнику Эдди Дивейну тоже все осточертело, и он подумывает об увольнении из армии. Но удивляться им все-таки пришлось, они почувствовали себя настоящими юнцами, когда повстречались с лейтенантом ВМС Тони Джонсон, красивой и вздорной особой, которая и была тем заключенным, кого они должны были доставить на базу. Доставка должна проходить согласно заведенному порядку. Однако Тони намерена во что бы то ни стало вырваться на свободу…



Кодек: x264
Качество: DVDRip-AVC
Видео: 844x480, 3000 kbps, 23,976 fps
Аудио #1: AC-3, 2 ch, 192 kbps (Rus) - Dub Варус-видео
Аудио #2: AC-3, 2 ch, 192 kbps (Rus) - DVO Екатеринбург-Арт
Аудио #3: AC-3, 2 ch, 192 kbps (Rus) - DVO Ren TV (ТНТ, ДТВ)
Аудио #4: AC-3, 6 ch, 384 kbps (Rus) - AVO Михалёв Алексей Михайлович
Аудио #5: AC-3, 2 ch, 192 kbps (Rus) - АVO Пронин Антон
Аудио #6: AC-3, 6 ch, 384 kbps (Eng)
Субтитры: Английские

За исходник спасибо - intellect

x264 [info]: frame I:1162 Avg QP:15.26 size: 61847
x264 [info]: frame P:29550 Avg QP:17.49 size: 29255
x264 [info]: frame B:115073 Avg QP:19.42 size: 11677
x264 [info]: consecutive B-frames: 1.4% 2.0% 7.2% 14.4% 16.0% 47.6% 7.9% 2.1% 0.7% 0.4% 0.1% 0.1% 0.1%
Общее
Уникальный идентификатор : 247778514324781076160571647769659004710 (0xBA6867F1AC4B8D91B66500D72A2B5726)
Полное имя : Конвоиры (Chasers) 1994 DVDRip.mkv
Формат : Matroska
Версия формата : Version 2
Размер файла : 3,21 Гбайт
Продолжительность : 1 ч. 41 м.
Общий поток : 4539 Кбит/сек
Дата кодирования : UTC 2016-08-31 09:50:11
Программа кодирования : mkvmerge v4.0.0 ('The Stars were mine') сборка от Jun 6 2010 16:18:42
Библиотека кодирования : libebml v1.0.0 + libmatroska v1.0.0
Видео
Идентификатор : 1
Формат : AVC
Формат/Информация : Advanced Video Codec
Профиль формата : High@L4.1
Параметр CABAC формата : Да
Параметр ReFrames формата : 12 кадров
Идентификатор кодека : V_MPEG4/ISO/AVC
Продолжительность : 1 ч. 41 м.
Битрейт : 3000 Кбит/сек
Ширина : 844 пикселя
Высота : 480 пикселей
Соотношение сторон : 16:9
Режим частоты кадров : Постоянный
Частота кадров : 23,976 (24000/1001) кадра/сек
Цветовое пространство : YUV
Субдискретизация насыщенности : 4:2:0
Битовая глубина : 8 бит
Тип развёртки : Прогрессивная
Бит/(Пиксели*Кадры) : 0.309
Размер потока : 2,06 Гбайт (64%)
Библиотека кодирования : x264 core 146 r2538 121396c
Настройки программы : cabac=1 / ref=12 / deblock=1:-3:-3 / analyse=0x3:0x133 / me=umh / subme=11 / psy=1 / psy_rd=1.00:0.00 / mixed_ref=1 / me_range=32 / chroma_me=1 / trellis=2 / 8x8dct=1 / cqm=0 / deadzone=21,11 / fast_pskip=0 / chroma_qp_offset=-2 / threads=12 / lookahead_threads=2 / sliced_threads=0 / nr=0 / decimate=0 / interlaced=0 / bluray_compat=0 / constrained_intra=0 / bframes=12 / b_pyramid=2 / b_adapt=2 / b_bias=0 / direct=3 / weightb=1 / open_gop=0 / weightp=2 / keyint=240 / keyint_min=23 / scenecut=40 / intra_refresh=0 / rc=2pass / mbtree=0 / bitrate=3000 / ratetol=1.0 / qcomp=0.60 / qpmin=0 / qpmax=69 / qpstep=4 / cplxblur=20.0 / qblur=0.5 / ip_ratio=1.40 / pb_ratio=1.30 / aq=1:0.80
Язык : English
Default : Нет
Forced : Нет
Аудио #1
Идентификатор : 2
Формат : AC-3
Формат/Информация : Audio Coding 3
Расширение режима : CM (complete main)
Параметр Endianness формата : Big
Идентификатор кодека : A_AC3
Продолжительность : 1 ч. 41 м.
Вид битрейта : Постоянный
Битрейт : 192 Кбит/сек
Каналы : 2 канала
Расположение каналов : Front: L R
Частота : 48,0 КГц
Частота кадров : 31,250 кадров/сек (1536 spf)
Метод сжатия : С потерями
Размер потока : 139 Мбайт (4%)
Заголовок : Dub Варус-видео
Язык : Russian
Default : Нет
Forced : Нет
Аудио #2
Идентификатор : 3
Формат : AC-3
Формат/Информация : Audio Coding 3
Расширение режима : CM (complete main)
Параметр Endianness формата : Big
Идентификатор кодека : A_AC3
Продолжительность : 1 ч. 41 м.
Вид битрейта : Постоянный
Битрейт : 192 Кбит/сек
Каналы : 2 канала
Расположение каналов : Front: L R
Частота : 48,0 КГц
Частота кадров : 31,250 кадров/сек (1536 spf)
Метод сжатия : С потерями
Размер потока : 139 Мбайт (4%)
Заголовок : DVO Екатеринбург-Арт
Язык : Russian
Default : Нет
Forced : Нет
Аудио #3
Идентификатор : 4
Формат : AC-3
Формат/Информация : Audio Coding 3
Расширение режима : CM (complete main)
Параметр Endianness формата : Big
Идентификатор кодека : A_AC3
Продолжительность : 1 ч. 41 м.
Вид битрейта : Постоянный
Битрейт : 192 Кбит/сек
Каналы : 2 канала
Расположение каналов : Front: L R
Частота : 48,0 КГц
Частота кадров : 31,250 кадров/сек (1536 spf)
Метод сжатия : С потерями
Размер потока : 139 Мбайт (4%)
Заголовок : DVO Ren TV (ТНТ, ДТВ)
Язык : Russian
Default : Нет
Forced : Нет
Аудио #4
Идентификатор : 5
Формат : AC-3
Формат/Информация : Audio Coding 3
Расширение режима : CM (complete main)
Параметр Endianness формата : Big
Идентификатор кодека : A_AC3
Продолжительность : 1 ч. 41 м.
Вид битрейта : Постоянный
Битрейт : 384 Кбит/сек
Каналы : 6 каналов
Расположение каналов : Front: L C R, Side: L R, LFE
Частота : 48,0 КГц
Частота кадров : 31,250 кадров/сек (1536 spf)
Метод сжатия : С потерями
Размер потока : 278 Мбайт (8%)
Заголовок : AVO Михалёв Алексей Михайлович [1944—1994]
Язык : Russian
Default : Нет
Forced : Нет
Аудио #5
Идентификатор : 6
Формат : AC-3
Формат/Информация : Audio Coding 3
Расширение режима : CM (complete main)
Параметр Endianness формата : Big
Идентификатор кодека : A_AC3
Продолжительность : 1 ч. 41 м.
Вид битрейта : Постоянный
Битрейт : 192 Кбит/сек
Каналы : 2 канала
Расположение каналов : Front: L R
Частота : 48,0 КГц
Частота кадров : 31,250 кадров/сек (1536 spf)
Метод сжатия : С потерями
Размер потока : 139 Мбайт (4%)
Заголовок : АVO Пронин Антон
Язык : Russian
Default : Нет
Forced : Нет
Аудио #6
Идентификатор : 7
Формат : AC-3
Формат/Информация : Audio Coding 3
Расширение режима : CM (complete main)
Параметр Endianness формата : Big
Идентификатор кодека : A_AC3
Продолжительность : 1 ч. 41 м.
Вид битрейта : Постоянный
Битрейт : 384 Кбит/сек
Каналы : 6 каналов
Расположение каналов : Front: L C R, Side: L R, LFE
Частота : 48,0 КГц
Частота кадров : 31,250 кадров/сек (1536 spf)
Метод сжатия : С потерями
Размер потока : 278 Мбайт (8%)
Язык : English
Default : Нет
Forced : Нет
Текст
Идентификатор : 8
Формат : UTF-8
Идентификатор кодека : S_TEXT/UTF8
Идентификатор кодека/Информация : UTF-8 Plain Text
Язык : English
Default : Нет
Forced : Нет



_________________



реклама партнёра


Вернуться к началу
 Профиль Отправить личное сообщение  
 
   Похожие торренты   Автор   Торрент   Размер 
В этой теме нет новых непрочитанных сообщений. Конвоиры / Chasers [комедия, приключения, 1994] WEB-DLRip, Dub

salma3

18 | 5

2.14 ГБ

В этой теме нет новых непрочитанных сообщений. Конвоиры / Chasers [комедия, приключения, 1994] WEB-DL 720p, Dub

salma3

21 | 2

3.97 ГБ

В этой теме нет новых непрочитанных сообщений. Шерлок Бонд: Пес-детектив / Sherlock: Undercover Dog [комедия, приключения, семейный, 1994] DVDRip, Mvo

salma3

5 | 5

677.07 МБ

В этой теме нет новых непрочитанных сообщений. Приключения Бриско Каунти-младшего / The Adventures of Brisco County Jr. [S01] [фантастика, вестерн, комедия, 1993-1994] DVDRip, Mvo

salma3

0 | 9

19.26 ГБ

В этой теме нет новых непрочитанных сообщений. Затерянный лагерь / Camp Nowhere [комедия, приключения, 1994] BDRip 720p, Mvo

salma3

100 | 6

3.14 ГБ

В этой теме нет новых непрочитанных сообщений. Уличный боец / Street Fighter [фантастика, боевик, комедия, приключения, 1994] HDRip, Avo

salma3

22 | 4

1.46 ГБ

В этой теме нет новых непрочитанных сообщений. Двойной дракон / Double Dragon [фантастика, боевик, комедия, приключения, 1994] BDRip-AVC, Mvo

salma3

29 | 9

1.46 ГБ


Начать новую тему Ответить на тему  [ 1 сообщение ] 




Для Мосгорсуда, Роскомнадзора и рекламодателей:: mosgorsud-torrent[собачка]yandex.ru