Торрент файл
скачать торрент магнет ссылка Добавлен: 01 сен 2016, 11:29
Размер: 1.46 ГБ
Сидеров: 100
Личеров: 18
Статус: (salma3)
Автор

СообщениеДобавлено: 01 сен 2016, 11:29 

Не в сети
Супермодератор
Аватара пользователя
Дата регистрации:
15 фев 2012, 16:44
Возраст: 27
Спасибо: 5143 / 2090
Сообщения: 17478
Год выхода: 2013
Жанр: комедия
Режиссер: Эммануэль Клотц, Альберт Перейра-Лазаро

В ролях: Люсьен Жан-Батист, Одри Флеро, Эмир Сегир, Сами Бузид, Маива Арну, Энцо Валльехо-Челотто, Виктуар Пупон, Лорен Фернандез, Паула Карвальо, Катрин Осмален, Венсан Дезанья, Дэвид Форе, Жюльен Гросси

О фильме:
Альберт и JM, два ученика пятого класса, за свое «художество» на скульптуре, которая находилась перед школой, были наказаны директором. По мнению директора, они свое мастерство должны проявлять в школьной стенгазете. Но это решение было воспринято главными героями как унижение. После короткой дискуссии с постоянными членами редколлегии было решено изменить формат газеты. А именно уйти от бумажной волокиты и организовать специальный сайт, на котором отображать частную жизнь своих учителей. Для воплощения в жизнь этой идеи главным героям придется не только отслеживать и снимать на телефон личную жизнь учителей, но и даже копаться в мусорных бачках.



Производство: Франция / 2.4.7. Films, France 2 Cinéma, Canal+
Продолжительность: 01:41:21
Перевод: профессиональный многоголосый закадровый

Файл
Качество: HDRip
Формат: AVI
Видео: XviD, 720x304 (2.35:1), 23.976 fps, 1665 kbps, 0.317 bit/pixel
Аудио: русский, AC3 5.1, 48 kHz, 384 kbps
Формат : AVI
Формат/Информация : Audio Video Interleave
Размер файла : 1,46 Гбайт
Продолжительность : 1 ч. 41 м.
Общий поток : 2058 Кбит/сек
Программа кодирования : VirtualDubModRus 1.5.10.2 (build 2542/release)
Библиотека кодирования : VirtualDubMod build 2542/release
Видео
Идентификатор : 0
Формат : MPEG-4 Visual
Профиль формата : Advanced Simple@L5
Параметр BVOP формата : 2
Параметр QPel формата : Нет
Параметр GMC формата : Без точки перехода
Параметр матрицы формата : Default (MPEG)
Идентификатор кодека : XVID
Идентификатор кодека/Подсказка : XviD
Продолжительность : 1 ч. 41 м.
Битрейт : 1665 Кбит/сек
Ширина : 720 пикселей
Высота : 304 пикселя
Соотношение сторон : 2,35:1
Частота кадров : 23,976 кадра/сек
Цветовое пространство : YUV
Субдискретизация насыщенности : 4:2:0
Битовая глубина : 8 бит
Тип развёртки : Прогрессивная
Метод сжатия : С потерями
Бит/(Пиксели*Кадры) : 0.317
Размер потока : 1,18 Гбайт (81%)
Библиотека кодирования : XviD 1.2.1 (UTC 2008-12-04)
Аудио
Идентификатор : 1
Формат : AC-3
Формат/Информация : Audio Coding 3
Расширение режима : CM (complete main)
Параметр Endianness формата : Big
Идентификатор кодека : 2000
Продолжительность : 1 ч. 41 м.
Вид битрейта : Постоянный
Битрейт : 384 Кбит/сек
Каналы : 6 каналов
Расположение каналов : Front: L C R, Side: L R, LFE
Частота : 48,0 КГц
Метод сжатия : С потерями
Размер потока : 278 Мбайт (19%)
Выравнивание : Разделение по промежуткам
Продолжительность промежутка : 42 мс. (1,00 видеокадр)
Время предзагрузки промежутка : 500 мс.


_________________



реклама партнёра


Вернуться к началу
 Профиль Отправить личное сообщение  
 
   Похожие торренты   Автор   Торрент   Размер 
В этой теме нет новых непрочитанных сообщений. Удивительная жизнь учителей / La Vraie vie des profs [комедия, 2013] BDRip 720p, Mvo

salma3

2 | 2

4.82 ГБ

В этой теме нет новых непрочитанных сообщений. Удивительная жизнь учителей / La Vraie vie des profs [комедия, 2013] BDRip 1080p, Mvo

salma3

2 | 3

8.5 ГБ

В этой теме нет новых непрочитанных сообщений. Безумные преподы: Миссия в Лондон / Les profs 2 [Комедия, 2015] HDRip, dvo

Dracon

692 | 12

1.37 ГБ

В этой теме нет новых непрочитанных сообщений. Невероятная жизнь Уолтера Митти / The Secret Life of Walter Mitty [фэнтези, драма, комедия, приключения, 2013] HDRip, Dub [Лицензия]

Dracon

9 | 3

2.16 ГБ

В этой теме нет новых непрочитанных сообщений. Жизнь во имя любви 2 / Aashiqui 2 [мюзикл, драма, мелодрама, 2013] HDRip, Mvo+Sub

salma3

170 | 22

2.19 ГБ

В этой теме нет новых непрочитанных сообщений. Эта прекрасная жизнь / Жизнь прекрасна / Life Is Beautiful [Драма, мелодрама, 2012] HDRip, Mvo [Red Media]

salma3

1 | 2

1.46 ГБ

В этой теме нет новых непрочитанных сообщений. Жизнь Адель / La vie d'Adèle - Chapitres 1 et 2 [Драма, мелодрама, 2013] HDRip, Dub [Лицензия]

Dracon

237 | 6

2.19 ГБ


Начать новую тему Ответить на тему  [ 1 сообщение ] 




Для Мосгорсуда, Роскомнадзора и рекламодателей:: mosgorsud-torrent[собачка]yandex.ru