Автор

СообщениеДобавлено: 30 авг 2016, 08:08 

Не в сети
Супермодератор
Аватара пользователя
Дата регистрации:
15 фев 2012, 12:44
Возраст: 27
Торренты: 6732
Раздал: 8.45 ТБ 
Скачал: 3.08 ТБ 
Ратио: 2.746
Спасибо: 5121 / 2089
Сообщения: 17296
Сладкие 16 / Sweet 16
Страна: США
Год выпуска: 1983
Жанр: ужасы, триллер
Продолжительность: 01:27:59
Режиссер: Джим Сотос
Автор сценария: Эрвин Голдман

В ролях: Бо Хопкинс, Сьюзен Страсберг, Патрик Макни, Дон Страуд, Дэна Киммелл, Дон Шанкс, Алейса Ширли, Стив Энтин, Шэрон Фаррелл

Описание: В небольшой техасский городок приехала на жительство новая семья, самой главной ценностью в которой являлась для местных парней 15-летняя Мелисса. Но вот каждый молодой человек, что встречался с ней, был позже найден мёртвым. Может к этому причастна Мелисса, а может кто-то ещё — это предстоит выяснить местному шерифу...



Перевод: Авторский (одноголосый, закадровый) | Андрей Дольский
Субтитры: нет

Качество: HDRip
Формат: АVI
Видео кодек: XviD
Аудио кодек: АС3
Видео: 720x400 (16:9), 23.976 fps, XviD ~2 179 kbps avg, 0.315 bit/pixel
Аудио: 48 kHz, AC3 Dolby Digital, 2/0 (L,R) ch, ~192 kbps
Дата премьеры (мир): 13 января 1983

General
Complete name : Sweet Sixteen_HDRip_RG_All_Films.avi
Format : AVI
Format/Info : Audio Video Interleave
File size : 1.46 GiB
Duration : 1h 27mn
Overall bit rate : 2 380 Kbps
Writing application : VirtualDubMod 1.5.10.3 | (build 2550/release)
Writing library : VirtualDubMod build 2550/release
Video
ID : 0
Format : MPEG-4 Visual
Format profile : Advanced Simple@L5
Format settings, BVOP : Yes
Format settings, QPel : No
Format settings, GMC : No warppoints
Format settings, Matrix : Custom
Codec ID : XVID
Codec ID/Hint : XviD
Duration : 1h 27mn
Bit rate : 2 179 Kbps
Width : 720 pixels
Height : 400 pixels
Display aspect ratio : 16:9
Frame rate : 23.976 fps
Color space : YUV
Chroma subsampling : 4:2:0
Bit depth : 8 bits
Scan type : Progressive
Compression mode : Lossy
Bits/(Pixel*Frame) : 0.315
Stream size : 1.34 GiB (92%)
Writing library : XviD 1.2.1 (UTC 2008-12-04)
Audio
ID : 1
Format : AC-3
Format/Info : Audio Coding 3
Mode extension : CM (complete main)
Codec ID : 2000
Duration : 1h 27mn
Bit rate mode : Constant
Bit rate : 192 Kbps
Channel(s) : 2 channels
Channel positions : Front: L R
Sampling rate : 48.0 KHz
Bit depth : 16 bits
Compression mode : Lossy
Stream size : 121 MiB (8%)
Alignment : Split accross interleaves
Interleave, duration : 42 ms (1.00 video frame)
Interleave, preload duration : 500 ms



_________________



реклама партнёра


Вернуться к началу
 Профиль Отправить личное сообщение  
 
   Похожие торренты   Автор   Торрент   Размер 
В этой теме нет новых непрочитанных сообщений. Сладкие оправдания / Sweet Alibis (Юй-чи Лянь) [комедия, 2014] HDRip, Avo

Dracon

1 | 0

1.46 ГБ

В этой теме нет новых непрочитанных сообщений. Сладкие оправдания / Sweet Alibis / Tian mi sha ji [комедия, 2014] HDRip, Avo

Dracon

33 | 5

2.05 ГБ

В этой теме нет новых непрочитанных сообщений. Sweet Peaches / Сладкие Персики (2016) WEB-DL

amadei

1 | 1

1.52 ГБ

В этой теме нет новых непрочитанных сообщений. Sweet Creampied / Сладкие кремовые пирожки (Dirty Laundry) (Darla, Lucy, Rebecca, Stacey) [2015 г., Cream Pie, Legal Teen, Gonzo, Hardcore, All Sex, DVDRip 400p]

friizze

3 | 4

961.98 МБ

В этой теме нет новых непрочитанных сообщений. Сумеречная зона / Twilight Zone: The Movie [ужасы, фантастика, фэнтези, триллер, 1983] HDRip, Dvo

salma3

34 | 4

1.45 ГБ

В этой теме нет новых непрочитанных сообщений. Милый дом / Sweet Home (Рафаэль Мартинес) [триллер, 2015] HDRip, mvo

Dracon

590 | 43

1.37 ГБ

В этой теме нет новых непрочитанных сообщений. На греческой улице... / The House on Sorority Row [ужасы, триллер, детектив, 1983] DVDRip, Dvo

salma3

176 | 33

1.46 ГБ


 [ 1 сообщение ] 




Для Мосгорсуда, Роскомнадзора и рекламодателей:: mosgorsud-torrent[собачка]yandex.ru