Торрент файл
скачать торрент магнет ссылка Добавлен: 29 авг 2016, 11:32
Размер: 741.99 МБ
Сидеров: 0
Личеров: 1
Статус: (salma3)
Автор

СообщениеДобавлено: 29 авг 2016, 11:32 

Не в сети
Супермодератор
Аватара пользователя
Дата регистрации:
15 фев 2012, 16:44
Возраст: 27
Спасибо: 5143 / 2090
Сообщения: 17478
Год выхода: 1979
Жанр: Ужасы, фантастика
Режиссер: Дэвид Кроненберг

В ролях: Оливер Рид, Саманта Эггар, Арт Хиндл, Генри Бекман, Нуала Фицджералд, Синди Хайндз, Сьюзэн Хоган, Гэри МакКихэн

О фильме:
Франк Карвет обеспокоен за свою маленькую дочь. Когда он привез Кэндис на выходные из института психоплазматики, где проходит лечение ее мать Нола, то обнаружил раны на теле девочки. Он отвозит Кэндис к матери Нолы, но странное небольшое существо убивает ее, а девочку находят спящей и ничего не помнящей. После очередного убийства полиции удается получить экземпляр таинственного киллера. По его виду становится понятно, что он искусственного происхождения. Так что же творит с людьми доктор Рэглан?



Страна: Канада
Студия: Canadian Film Development Corporation, Elgin International Films Ltd., Mutual Productions Ltd.
Продолжительность: 01:32:12
Перевод: Авторский (Визгунов)
Файл
Качество: BDRip (The Brood 1979 BDRemux)
Видео: XviD, 988 Кбит/с, 656х368, 23.976 кадр/с
Звук: MP3, 2 ch, 128 Кбит/с
Общее
Полное имя : The.Brood.1979.BDRip.avi
Формат : AVI
Формат/Информация : Audio Video Interleave
Размер файла : 742 Мбайт
Продолжительность : 1 ч. 32 м.
Общий поток : 1125 Кбит/сек
Программа кодирования : VirtualDubMod 1.5.10.2 (build 2540/release)
Библиотека кодирования : VirtualDubMod build 2540/release
Видео
Идентификатор : 0
Формат : MPEG-4 Visual
Профиль формата : Advanced Simple@L5
Параметр BVOP формата : 1
Параметр QPel формата : Нет
Параметр GMC формата : Без точки перехода
Параметр матрицы формата : Default (H.263)
Идентификатор кодека : XVID
Идентификатор кодека/Подсказка : XviD
Продолжительность : 1 ч. 32 м.
Битрейт : 988 Кбит/сек
Ширина : 656 пикселей
Высота : 368 пикселей
Соотношение сторон : 16:9
Частота кадров : 23,976 (23976/1000) кадра/сек
Цветовое пространство : YUV
Субдискретизация насыщенности : 4:2:0
Битовая глубина : 8 бит
Тип развёртки : Прогрессивная
Метод сжатия : С потерями
Бит/(Пиксели*Кадры) : 0.171
Размер потока : 651 Мбайт (88%)
Библиотека кодирования : XviD 1.2.0.dev47 (UTC 2006-11-01)
Аудио
Идентификатор : 1
Формат : MPEG Audio
Версия формата : Version 1
Профиль формата : Layer 3
Режим : Joint stereo
Расширение режима : MS Stereo
Идентификатор кодека : 55
Идентификатор кодека/Подсказка : MP3
Продолжительность : 1 ч. 32 м.
Вид битрейта : Постоянный
Битрейт : 128 Кбит/сек
Каналы : 2 канала
Частота : 48,0 КГц
Метод сжатия : С потерями
Размер потока : 84,4 Мбайт (11%)
Выравнивание : Соединение по промежуткам
Продолжительность промежутка : 42 мс. (1,00 видеокадр)
Время предзагрузки промежутка : 504 мс.
Библиотека кодирования : LAME3.99r
Настройки программы : -m j -V 4 -q 3 -lowpass 17 -b 128


_________________



реклама партнёра


Вернуться к началу
 Профиль Отправить личное сообщение  
 
   Похожие торренты   Автор   Торрент   Размер 
В этой теме нет новых непрочитанных сообщений. Выводок / The Brood [ужасы, фантастика, 1979] BDRemux 1080p, 2Avo+Sub

salma3

5 | 3

13.99 ГБ

В этой теме нет новых непрочитанных сообщений. Посетитель / Stridulum [ужасы, фантастика, 1979] BDRip 720p, Avo

salma3

3 | 3

4.86 ГБ

В этой теме нет новых непрочитанных сообщений. Выводок / The Hatching [ужасы, фэнтези, комедия, 2016] WEB-DLRip, Avo

salma3

141 | 11

1.45 ГБ

В этой теме нет новых непрочитанных сообщений. Выводок / The Hatching [Ужасы, фэнтези, комедия, 2016] HDRip, Avo

salma3

136 | 20

1.11 ГБ

В этой теме нет новых непрочитанных сообщений. Недооформлен Выводок / The Hatching (Ужасы, фэнтези, комедия, 2016) DVDRip от ExKinoRay | L1 Данный торрент является блокированным, причина: недооформленный торрент

marya111

0 | 0

1.37 ГБ

В этой теме нет новых непрочитанных сообщений. Рыба-убийца / Killer Fish [ужасы, 1979] BDRip 1080p, 3Avo

salma3

14 | 12

12.7 ГБ

В этой теме нет новых непрочитанных сообщений. Когда звонит незнакомец / When a Stranger Calls [ужасы, триллер, 1979] BDRip, Avo

salma3

5 | 5

1.45 ГБ


Начать новую тему Ответить на тему  [ 1 сообщение ] 




Для Мосгорсуда, Роскомнадзора и рекламодателей:: mosgorsud-torrent[собачка]yandex.ru