Торрент файл
скачать торрент магнет ссылка Добавлен: 28 авг 2016, 11:50
Размер: 1.46 ГБ
Сидеров: 35
Личеров: 2
Статус: (salma3)
Автор

СообщениеДобавлено: 28 авг 2016, 11:50 

В сети
Супермодератор
Аватара пользователя
Дата регистрации:
15 фев 2012, 16:44
Возраст: 27
Спасибо: 5139 / 2090
Сообщения: 17443
Год выхода: 2016
Жанр: Семейный
Режиссер: Билле Вудрафф

В ролях: Кэсси, Кенни Вормолд, Бобби Локвуд, Дена Каплан, Сивуйеле Нгеси, Питер Батлер, Эдриан Голли, Клэйтон Эвертсон

О фильме:
В учебное время в колледже Кейптауна, Мили Мартин решает развеяться, чтобы отвлечься от строгой школьной политики. В поисках того, как использовать свой талант танцовщицы, при этом вдохновив окружающих, Мили арендует закрывшийся театр, чтобы показать "Ромео и Джульетту" в хип-хоп стиле. Но так же, как это было между Капулетти и Монтекками, конфликты между актерами угрожают всей постановке...



Страна: США
Студия: Capital Arts Entertainment, Universal 1440 Entertainment, Universal Pictures
Продолжительность: 01:36:17
Перевод: Профессиональный (полное дублирование)[BD CEE]
Файл
Формат: MKV
Кодек: x264
Качество: HDRip-AVC
Видео: 720x406 (16:9), 23,976 fps, х264 ~ 1721 kbps avg, 0.246 bit/pixel
Аудио: 48,0 kHz, Audio Coding 3, 6 ch, ~448 kbps avg
Общее
Уникальный идентификатор : 191860088417056365772451526073484461094 (0x9056E8B06432BC069F80DFB4A48E4426)
Полное имя : D:TempHoney.3.2O16.HDRip(AVC) by Vovan366(ExKinoRay).mkv
Формат : Matroska
Версия формата : Version 4 / Version 2
Размер файла : 1,46 Гбайт
Продолжительность : 1 ч. 36 м.
Общий поток : 2167 Кбит/сек
Название фильма : Honey.3.2O16.HDRip(AVC) by Vovan366(ExKinoRay)
Дата кодирования : UTC 2016-08-26 22:02:14
Программа кодирования : mkvmerge v9.4.0 ('Knurl') 64bit
Библиотека кодирования : libebml v1.3.4 + libmatroska v1.4.5
DURATION : 01:36:16.736000000
NUMBER_OF_FRAMES : 180523
NUMBER_OF_BYTES : 323497216
_STATISTICS_WRITING_APP : mkvmerge v9.4.0 ('Knurl') 64bit
_STATISTICS_WRITING_DATE_UTC : 2016-08-26 22:02:14
_STATISTICS_TAGS : BPS DURATION NUMBER_OF_FRAMES NUMBER_OF_BYTES
Видео
Идентификатор : 1
Формат : AVC
Формат/Информация : Advanced Video Codec
Профиль формата : High@L4.1
Параметр CABAC формата : Да
Параметр ReFrames формата : 10 кадров
Идентификатор кодека : V_MPEG4/ISO/AVC
Продолжительность : 1 ч. 36 м.
Битрейт : 1721 Кбит/сек
Ширина : 720 пикселей
Высота : 406 пикселей
Соотношение сторон : 16:9
Режим частоты кадров : Постоянный
Частота кадров : 23,976 кадра/сек
Цветовое пространство : YUV
Субдискретизация насыщенности : 4:2:0
Битовая глубина : 8 бит
Тип развёртки : Прогрессивная
Бит/(Пиксели*Кадры) : 0.246
Размер потока : 1,13 Гбайт (77%)
Заголовок : by Vovan366(ExKinoRay)
Библиотека кодирования : x264 core 146 r2538 121396c
Настройки программы : cabac=1 / ref=10 / deblock=1:-3:-3 / analyse=0x3:0x113 / me=umh / subme=11 / psy=1 / psy_rd=1.00:0.05 / mixed_ref=1 / me_range=48 / chroma_me=1 / trellis=2 / 8x8dct=1 / cqm=0 / deadzone=21,11 / fast_pskip=0 / chroma_qp_offset=-3 / threads=6 / lookahead_threads=1 / sliced_threads=0 / nr=0 / decimate=0 / interlaced=0 / bluray_compat=0 / constrained_intra=0 / bframes=10 / b_pyramid=2 / b_adapt=2 / b_bias=0 / direct=3 / weightb=1 / open_gop=0 / weightp=2 / keyint=240 / keyint_min=23 / scenecut=40 / intra_refresh=0 / rc_lookahead=40 / rc=2pass / mbtree=0 / bitrate=1721 / ratetol=1.0 / qcomp=0.60 / qpmin=0 / qpmax=69 / qpstep=4 / cplxblur=20.0 / qblur=0.5 / vbv_maxrate=14000 / vbv_bufsize=14000 / nal_hrd=none / filler=0 / ip_ratio=1.40 / pb_ratio=1.30 / aq=1:1.00
Default : Да
Forced : Нет
Основные цвета : BT.709
Характеристики трансфера : BT.709
Коэффициенты матрицы : BT.709
Аудио
Идентификатор : 2
Формат : AC-3
Формат/Информация : Audio Coding 3
Расширение режима : CM (complete main)
Параметр Endianness формата : Big
Идентификатор кодека : A_AC3
Продолжительность : 1 ч. 36 м.
Вид битрейта : Постоянный
Битрейт : 448 Кбит/сек
Каналы : 6 каналов
Расположение каналов : Front: L C R, Side: L R, LFE
Частота : 48,0 КГц
Битовая глубина : 16 бит
Метод сжатия : С потерями
Размер потока : 309 Мбайт (21%)
Язык : Russian
Default : Да
Forced : Нет
Меню
00:00:00.000 : en:
00:04:30.770 : en:
00:08:19.958 : en:
00:12:40.843 : en:
00:17:15.826 : en:
00:22:19.463 : en:
00:27:58.844 : en:
00:32:03.547 : en:
00:39:09.305 : en:
00:44:10.773 : en:
00:51:03.060 : en:
00:54:47.826 : en:
01:01:20.010 : en:
01:06:50.798 : en:
01:10:44.407 : en:
01:14:29.715 : en:
01:22:31.196 : en:
01:27:23.780 : en:
01:30:38.808 : en:
01:32:43.516 : en:



Релиз от:
Rip by: Vovan366


_________________



реклама партнёра


Вернуться к началу
 Профиль Отправить личное сообщение  
 
   Похожие торренты   Автор   Торрент   Размер 
В этой теме нет новых непрочитанных сообщений. Лапочка 3 / Honey 3: Dare to Dance [Семейный, 2016] HDRip, Dub [Лицензия]

salma3

1209 | 189

1.46 ГБ

В этой теме нет новых непрочитанных сообщений. Лапочка 3 / Honey 3: Dare to Dance [семейный, 2016] Blu-Ray CEE, Dub [Лицензия]

salma3

1 | 3

36.15 ГБ

В этой теме нет новых непрочитанных сообщений. Лапочка 3 / Honey 3: Dare to Dance [семейный, музыка, мелодрама, 2016] BDRip 720p, Dub [Лицензия]

salma3

161 | 23

3.96 ГБ

В этой теме нет новых непрочитанных сообщений. Лапочка 3 / Honey 3: Dare to Dance [семейный, музыка, мелодрама, 2016] BDRip 1080p, Dub [Лицензия]

salma3

115 | 32

7.89 ГБ

В этой теме нет новых непрочитанных сообщений. Пит и его дракон / Pete's Dragon [фэнтези, приключения, семейный, 2016] HDRip-AVC, Dub [лицензия]

salma3

540 | 10

1.45 ГБ

В этой теме нет новых непрочитанных сообщений. Пит и его дракон / Pete's Dragon [фэнтези, приключения, семейный, 2016] HDRip, Dub [лицензия]

salma3

334 | 12

2.05 ГБ

В этой теме нет новых непрочитанных сообщений. Пит и его дракон / Pete's Dragon [фэнтези, приключения, семейный, 2016] HDRip, Dub [лицензия]

salma3

838 | 24

1.37 ГБ


Начать новую тему Ответить на тему  [ 1 сообщение ] 




Для Мосгорсуда, Роскомнадзора и рекламодателей:: mosgorsud-torrent[собачка]yandex.ru