Торрент файл
скачать торрент магнет ссылка Добавлен: 27 авг 2016, 20:35
Размер: 2.05 ГБ
Сидеров: 25
Личеров: 1
Статус: (salma3)
Автор

СообщениеДобавлено: 27 авг 2016, 20:35 

В сети
Супермодератор
Аватара пользователя
Дата регистрации:
15 фев 2012, 16:44
Возраст: 27
Спасибо: 5143 / 2090
Сообщения: 17475
Перевод: Любительский (многоголосый) [ColdFilm], субтитры: отсутствуют
Формат: BDRip-AVC, MKV, H.264, AC3
Страна: Норвегия
Режиссер: Нильс Гёуп
Жанр: боевик, драма, приключения
Продолжительность: 01:39:25
Год выпуска: 2016

В ролях: Андерс Дальберг, Эльг Элгесем, Пол Сверре Валхейм Хаген, Торбьорн Харр, Беньямин Хельстад, Кристофер Хивью, Стиг Хенрик Хофф, Еппе Леурсен, Николай Ли Каас, Адам Немет

Описание: 1204 год, Норвегию раздирает гражданская война. Незаконнорожденного сына короля Хокона III Сверрессона и Инги из Вартейга хранят в глубокой тайне. Мальчик был внебрачным сыном короля и родился после его смерти, что спровоцировало кровавую междоусобицу. Биркебейнеры (ополчение, созданное его дедом, королем Сверре Сигурдсоном) признали мальчика наследником трона Норвегии. Однако католические священники объявили охоту на ребенка с целью его уничтожения.
В 1206 году группа вооруженных биркебейнеров помогла Инги и Хокону бежать на север под покровительством короля Инге Бордссона. По пути их небольшой отряд попал в снежную бурю, но два могучих воина, Торстейн Шевла и Шьервальд Шрукка, продолжали продвигаться на лыжах, неся ребенка на руках. Когда Хокона доставили в Тронхейм, король Инге взял его под своё покровительство.




Видео: 1024x436 (2.35:1), 24 fps, AVC MPEG-4 (H.264), ~2504 kbps, 0.234 bit/pixel
Аудио: 48 kHz, AC3 Dolby Digital, 3/2 (L,C,R,l,r) + LFE ch, ~448 kbps
General
Unique ID : 215245354165590633001612939757552919639 (0xA1EEBF4EE82EA59A814FA6467CABE457)
Complete name : C:\Users\Юрик\Downloads\Birkebeinerne.(2016).BDRip-AVC_[tfile.ru].mkv
Format : Matroska
Format version : Version 2
File size : 2.05 GiB
Duration : 1h 39mn
Overall bit rate : 2 951 Kbps
Movie name : Birkebeinerne.(2016).BDRip-AVC.[denis100]
Encoded date : UTC 2016-06-24 12:59:22
Writing application : mkvmerge v5.8.0 ('No Sleep / Pillow') built on Sep 2 2012 15:37:04
Writing library : libebml v1.2.3 + libmatroska v1.3.0

Video
ID : 1
Format : AVC
Format/Info : Advanced Video Codec
Format profile :
Format settings, CABAC : Yes
Format settings, ReFrames : 11 frames
Codec ID : V_MPEG4/ISO/AVC
Duration : 1h 39mn
Bit rate : 2 504 Kbps
Width : 1 024 pixels
Height : 436 pixels
Display aspect ratio : 2.35:1
Frame rate mode : Constant
Frame rate : 24.000 fps
Color space : YUV
Chroma subsampling : 4:2:0
Bit depth : 8 bits
Scan type : Progressive
Bits/(Pixel*Frame) : 0.234
Stream size : 1.70 GiB (83%)
Title : Birkebeinerne.(2016).BDRip-AVC.[denis100]
Writing library : x264 core 148 r2692 64f4e24
Encoding settings : cabac=1 / ref=11 / deblock=1:-3:-3 / analyse=0x3:0x133 / me=umh / subme=11 / psy=1 / psy_rd=1.00:0.10 / mixed_ref=1 / me_range=32 / chroma_me=1 / trellis=2 / 8x8dct=1 / cqm=0 / deadzone=21,11 / fast_pskip=0 / chroma_qp_offset=-3 / threads=6 / lookahead_threads=1 / sliced_threads=0 / nr=0 / decimate=1 / interlaced=0 / bluray_compat=0 / constrained_intra=0 / bframes=9 / b_pyramid=2 / b_adapt=2 / b_bias=0 / direct=3 / weightb=1 / open_gop=0 / weightp=2 / keyint=240 / keyint_min=23 / scenecut=40 / intra_refresh=0 / rc=2pass / mbtree=0 / bitrate=2504 / ratetol=1.0 / qcomp=0.60 / qpmin=0 / qpmax=69 / qpstep=4 / cplxblur=20.0 / qblur=0.5 / ip_ratio=1.40 / pb_ratio=1.30 / aq=2:0.90
Language : English
Default : Yes
Forced : No

Audio
ID : 2
Format : AC-3
Format/Info : Audio Coding 3
Mode extension : CM (complete main)
Format settings, Endianness : Big
Codec ID : A_AC3
Duration : 1h 39mn
Bit rate mode : Constant
Bit rate : 448 Kbps
Channel(s) : 6 channels
Channel positions : Front: L C R, Side: L R, LFE
Sampling rate : 48.0 KHz
Frame rate : 31.250 fps (1536 spf)
Compression mode : Lossy
Stream size : 319 MiB (15%)
Title : СoldFilm
Language : Russian
Default : Yes
Forced : No

Menu
00:00:00.000 : en:Chapter 01
00:09:59.790 : en:Chapter 02
00:19:59.750 : en:Chapter 03
00:29:59.665 : en:Chapter 04
00:39:59.750 : en:Chapter 05
00:49:59.833 : en:Chapter 06
00:59:59.708 : en:Chapter 07
01:09:59.707 : en:Chapter 08
01:19:59.916 : en:Chapter 09
01:29:59.791 : en:Chapter 10
01:39:24.291 : en:Chapter 11




_________________



реклама партнёра


Вернуться к началу
 Профиль Отправить личное сообщение  
 
   Похожие торренты   Автор   Торрент   Размер 
В этой теме нет новых непрочитанных сообщений. Биркебейнеры / Birkebeinerne (Нильс Гёуп / Nils Gaup) [2016г., Норвегия, приключения, боевик, драма, HDRip] VO

Alfredovich

0 | 0

747.46 МБ

В этой теме нет новых непрочитанных сообщений. Бен-Гур / Ben-Hur (боевик, драма, приключения, 2016) BDRip | Line

marya111

15984 | 2243

1.46 ГБ

В этой теме нет новых непрочитанных сообщений. Восставший / Risen [боевик, драма, детектив, приключения, 2016] BDRip 720p, Avo

salma3

1125 | 70

4.76 ГБ

В этой теме нет новых непрочитанных сообщений. Равнины Меркурия / Mercury Plains [боевик, драма, приключения, 2016] BDRip 1080p, Mvo

salma3

0 | 0

7.95 ГБ

В этой теме нет новых непрочитанных сообщений. Равнины Меркурия / Mercury Plains [боевик, драма, приключения, 2016] BDRip 720p, Mvo

salma3

0 | 0

4.67 ГБ

В этой теме нет новых непрочитанных сообщений. Тарзан. Легенда / The Legend of Tarzan (боевик, драма, мелодрама, приключения, 2016) BDRip от HQCLUB | D | Лицензия

marya111

210 | 14

2.18 ГБ

В этой теме нет новых непрочитанных сообщений. Тарзан. Легенда / The Legend of Tarzan [боевик, драма, мелодрама, приключения, 2016] BDRip 1080p, Dub [iTunes]

marya111

755 | 76

7.46 ГБ


Начать новую тему Ответить на тему  [ 1 сообщение ] 




Для Мосгорсуда, Роскомнадзора и рекламодателей:: mosgorsud-torrent[собачка]yandex.ru