Торрент файл
скачать торрент магнет ссылка Добавлен: 26 авг 2016, 11:55
Размер: 1.46 ГБ
Сидеров: 1209
Личеров: 189
Статус: (salma3)
Автор

СообщениеДобавлено: 26 авг 2016, 11:55 

В сети
Супермодератор
Аватара пользователя
Дата регистрации:
15 фев 2012, 16:44
Возраст: 27
Спасибо: 5143 / 2090
Сообщения: 17513
Год выхода: 2016
Жанр: Семейный
Режиссер: Билле Вудрафф

В ролях: Кэсси, Кенни Вормолд, Бобби Локвуд, Дена Каплан, Сивуйеле Нгеси, Питер Батлер, Эдриан Голли, Клэйтон Эвертсон

О фильме:
В учебное время в колледже Кейптауна, Мили Мартин решает развеяться, чтобы отвлечься от строгой школьной политики. В поисках того, как использовать свой талант танцовщицы, при этом вдохновив окружающих, Мили арендует закрывшийся театр, чтобы показать "Ромео и Джульетту" в хип-хоп стиле. Но так же, как это было между Капулетти и Монтекками, конфликты между актерами угрожают всей постановке...



Страна: США
Продолжительность: 01:36:17
Перевод: Профессиональный (полное дублирование)[BD CEE]

Файл
Качество: HDRip
Кодек: XviD
Видео: 720x400 (16:9), 23,976 fps, XviD ~1717 kbps avg, 0.249 bit/pixel
Аудио: 48 kHz, AC3, 6 ch, ~448.00 kbps avg

Семпл

Общее
Полное имя : D:TorrentsЗавершенныеHoney.3.2O16.D.HDRip.14OOMB.avi
Формат : AVI
Формат/Информация : Audio Video Interleave
Размер файла : 1,46 Гбайт
Продолжительность : 1 ч. 36 м.
Общий поток : 2174 Кбит/сек
Программа кодирования : VirtualDubMod 1.5.10.2 (build 2540/release)
Библиотека кодирования : VirtualDubMod build 2540/release
Видео
Идентификатор : 0
Формат : MPEG-4 Visual
Профиль формата : Advanced Simple@L5
Параметр BVOP формата : 2
Параметр QPel формата : Нет
Параметр GMC формата : Без точки перехода
Параметр матрицы формата : Выборочная
Идентификатор кодека : XVID
Идентификатор кодека/Подсказка : XviD
Продолжительность : 1 ч. 36 м.
Битрейт : 1717 Кбит/сек
Ширина : 720 пикселей
Высота : 400 пикселей
Соотношение сторон : 16:9
Частота кадров : 23,976 (24000/1001) кадра/сек
Цветовое пространство : YUV
Субдискретизация насыщенности : 4:2:0
Битовая глубина : 8 бит
Тип развёртки : Прогрессивная
Метод сжатия : С потерями
Бит/(Пиксели*Кадры) : 0.249
Размер потока : 1,15 Гбайт (79%)
Библиотека кодирования : XviD 1.2.1 (UTC 2008-12-04)
Аудио
Идентификатор : 1
Формат : AC-3
Формат/Информация : Audio Coding 3
Расширение режима : CM (complete main)
Параметр Endianness формата : Big
Идентификатор кодека : 2000
Продолжительность : 1 ч. 36 м.
Вид битрейта : Постоянный
Битрейт : 448 Кбит/сек
Каналы : 6 каналов
Расположение каналов : Front: L C R, Side: L R, LFE
Частота : 48,0 КГц
Частота кадров : 31,250 кадров/сек (1536 spf)
Метод сжатия : С потерями
Размер потока : 309 Мбайт (21%)
Выравнивание : Разделение по промежуткам
Продолжительность промежутка : 42 мс. (1,00 видеокадр)
Время предзагрузки промежутка : 500 мс.


_________________



реклама партнёра


Вернуться к началу
 Профиль Отправить личное сообщение  
 
   Похожие торренты   Автор   Торрент   Размер 
В этой теме нет новых непрочитанных сообщений. Лапочка 3 / Honey 3: Dare to Dance [Семейный, 2016] HDRip-AVC, Dub [Лицензия]

salma3

35 | 2

1.46 ГБ

В этой теме нет новых непрочитанных сообщений. Лапочка 3 / Honey 3: Dare to Dance [семейный, 2016] Blu-Ray CEE, Dub [Лицензия]

salma3

1 | 3

36.15 ГБ

В этой теме нет новых непрочитанных сообщений. Лапочка 3 / Honey 3: Dare to Dance [семейный, музыка, мелодрама, 2016] BDRip 720p, Dub [Лицензия]

salma3

161 | 23

3.96 ГБ

В этой теме нет новых непрочитанных сообщений. Лапочка 3 / Honey 3: Dare to Dance [семейный, музыка, мелодрама, 2016] BDRip 1080p, Dub [Лицензия]

salma3

115 | 32

7.89 ГБ

В этой теме нет новых непрочитанных сообщений. Пит и его дракон / Pete's Dragon [фэнтези, приключения, семейный, 2016] HDRip-AVC, Dub [лицензия]

salma3

540 | 10

1.45 ГБ

В этой теме нет новых непрочитанных сообщений. Пит и его дракон / Pete's Dragon [фэнтези, приключения, семейный, 2016] HDRip, Dub [лицензия]

salma3

839 | 24

1.37 ГБ

В этой теме нет новых непрочитанных сообщений. Пит и его дракон / Pete's Dragon [фэнтези, приключения, семейный, 2016] HDRip, Dub [лицензия]

salma3

334 | 12

2.05 ГБ


Начать новую тему Ответить на тему  [ 1 сообщение ] 




Для Мосгорсуда, Роскомнадзора и рекламодателей:: mosgorsud-torrent[собачка]yandex.ru