Торрент файл
скачать торрент магнет ссылка Добавлен: 26 авг 2016, 11:36
Размер: 1.46 ГБ
Сидеров: 6
Личеров: 1
Статус: (salma3)
Автор

СообщениеДобавлено: 26 авг 2016, 11:36 

Не в сети
Супермодератор
Аватара пользователя
Дата регистрации:
15 фев 2012, 16:44
Возраст: 27
Спасибо: 5139 / 2089
Сообщения: 17432
Страна: США
Производство: A Marion Segal/Herb Freed Production
Жанр: Фантастика
Год выпуска:1999
Продолжительность: 01:42:38
Режиссер: Херб Фрид

В ролях: Уильям Форсайт, Марина Сиртис, Найджел Хэверс, Мигель Анхель Суарес, Мишель Анджело Межиа, Мигель Анхель Алварез, Адамари Лопес, Луз Минерва Родригез,
Аксель Андерсон

Описание:Могущественная корпорация «Старк Индастриз» разрабатывает план по освоению непроходимых джунглей. В центре тропического леса на месте маленькой, заброшенной деревушки будет воздвигнут город будущего — Византия. Вся мощь современной цивилизации вторгается в первозданный мир, где испокон веков обитали только дикие звери и первобытные племена. Но существует легенда: джунглей, где не ступала нога человека, защищает «племя Тьмы», и оно жестоко расправится с каждым, кто войдет в его дом без приглашения. Люди неподозревают, к каким катаклизмам может привести их бездумное вмешательство, а у природы еще остались силы, чтобы отомстить человечеству за разрушенный рай.

Исходник: DVD9 R1
Тип релиза: DVDRip
Перевод: Авторский (Сербин)
Контейнер: AVI
Видео: 704x368 (1.91:1), 29.970 fps, XviD MPEG-4 ~1663 kbps avg, 0.21 bit/pixel
Аудио 1: 48 kHz, AC3 Dolby Digital, 2/0 (L,R) ch, ~192 kbps (русский)
Аудио 2: 48 kHz, AC3 Dolby Digital, 2/0 (L,R) ch, ~192 kbps (английский)
Общее
Полное имя : D:ААА2Племя Тьмы.avi
Формат : AVI
Формат/Информация : Audio Video Interleave
Размер файла : 1,46 Гбайт
Продолжительность : 1 ч. 41 м.
Общий поток : 2065 Кбит/сек
Программа кодирования : VirtualDubMod 1.5.10.2 (build 2540/release)
Библиотека кодирования : VirtualDubMod build 2540/release
Видео
Идентификатор : 0
Формат : MPEG-4 Visual
Профиль формата : Advanced Simple@L5
Параметр BVOP формата : 2
Параметр QPel формата : Нет
Параметр GMC формата : Без точки перехода
Параметр матрицы формата : Default (MPEG)
Режим смешивания : Сжатый битовый поток
Идентификатор кодека : XVID
Идентификатор кодека/Подсказка : XviD
Продолжительность : 1 ч. 41 м.
Битрейт : 1664 Кбит/сек
Ширина : 704 пикселя
Высота : 368 пикселей
Соотношение сторон : 1,913
Частота кадров : 29,970 кадров/сек
Цветовое пространство : YUV
Субдискретизация насыщенности : 4:2:0
Битовая глубина : 8 бит
Тип развёртки : Прогрессивная
Метод сжатия : С потерями
Бит/(Пиксели*Кадры) : 0.214
Размер потока : 1,18 Гбайт (81%)
Библиотека кодирования : XviD 1.2.1 (UTC 2008-12-04)
Аудио #1
Идентификатор : 1
Формат : AC-3
Формат/Информация : Audio Coding 3
Расширение режима : CM (complete main)
Параметр Endianness формата : Big
Идентификатор кодека : 2000
Продолжительность : 1 ч. 41 м.
Вид битрейта : Постоянный
Битрейт : 192 Кбит/сек
Каналы : 2 канала
Расположение каналов : Front: L R
Частота : 48,0 КГц
Битовая глубина : 16 бит
Метод сжатия : С потерями
Задержка видео : 20 мс.
Размер потока : 139 Мбайт (9%)
Выравнивание : Разделение по промежуткам
Продолжительность промежутка : 33 мс. (1,00 видеокадр)
Время предзагрузки промежутка : 500 мс.
Аудио #2
Идентификатор : 2
Формат : AC-3
Формат/Информация : Audio Coding 3
Расширение режима : CM (complete main)
Параметр Endianness формата : Big
Идентификатор кодека : 2000
Продолжительность : 1 ч. 41 м.
Вид битрейта : Постоянный
Битрейт : 192 Кбит/сек
Каналы : 2 канала
Расположение каналов : Front: L R
Частота : 48,0 КГц
Битовая глубина : 16 бит
Метод сжатия : С потерями
Задержка видео : 20 мс.
Размер потока : 139 Мбайт (9%)
Выравнивание : Разделение по промежуткам
Продолжительность промежутка : 33 мс. (1,00 видеокадр)
Время предзагрузки промежутка : 500 мс.


Релиз:


_________________



реклама партнёра


Вернуться к началу
 Профиль Отправить личное сообщение  
 
   Похожие торренты   Автор   Торрент   Размер 
В этой теме нет новых непрочитанных сообщений. Paradise Lost - Lost In Time (Compilation) [2012, Gothic,Doom Metal, MP3]

PriZraK

1 | 2

122.77 МБ

В этой теме нет новых непрочитанных сообщений. Затерянный мир / The Lost World / 1-3 сезоны 1-67 серии из 67 [фантастика, фэнтези, боевик, приключения, 1999–2002] DVDRip, Dub

salma3

18 | 15

25.92 ГБ

В этой теме нет новых непрочитанных сообщений. Кровавый спорт 4: Цвет тьмы / Bloodsport: The Dark Kumite [Боевик, боевые искусства, 1999] DVDRip-AVC, Mvo+Avo

salma3

95 | 31

2.29 ГБ

В этой теме нет новых непрочитанных сообщений. Lost Paradise [v.0.30.1.3055] [MMO-Action, 2012] [Лицензия]

druid81max

0 | 2

1.9 ГБ

В этой теме нет новых непрочитанных сообщений. Paradise Lost - Tragic Idol [2012, Doom,Gothic Metal, MP3]

PriZraK

0 | 1

105.71 МБ

В этой теме нет новых непрочитанных сообщений. Paradise Lost - Crucify (New song) [14.02.2012, Doom, Gothic Metal, MP3]

PriZraK

0 | 1

5.75 МБ

В этой теме нет новых непрочитанных сообщений. Evanescence - Lost in Paradise (Single) [09.06.2012, Alternative Rock, Female Vocal, MP3]

PriZraK

0 | 2

32.5 МБ


Начать новую тему Ответить на тему  [ 1 сообщение ] 




Для Мосгорсуда, Роскомнадзора и рекламодателей:: mosgorsud-torrent[собачка]yandex.ru