Торрент файл
скачать торрент магнет ссылка Добавлен: 24 авг 2016, 11:35
Размер: 2.18 ГБ
Сидеров: 315
Личеров: 8
Статус: (salma3)
Автор

СообщениеДобавлено: 24 авг 2016, 11:35 

Не в сети
Супермодератор
Аватара пользователя
Дата регистрации:
15 фев 2012, 16:44
Возраст: 27
Спасибо: 5139 / 2089
Сообщения: 17432
Перевод: Профессиональный (полное дублирование) [Лицензия R5]
Cубтитры: Pусские, английские (Full), Aнглийские (SDH)
Формат: BDRip-AVC, MKV, H.264, AC3
Страна: США
Режиссер: Дон Майкл Пол / Don Michael Paul
Жанр: комедия
Продолжительность: 01:40:06
Год выпуска: 2016
В ролях: Дольф Лундгрен (Agent Reed), Фиона Врум (Michelle), Алекс Паунович (Zogu), Сара Стрэйндж (Miss Sinclaire), Дарла Тейлор (Olivia), Джоди Томпсон (Hot Mom), Билл Беллами (Agent Sanders), Рафаэль Алехандро (Cowboy), Ребекка Олсон (Katja), Энид-Рэй Адамс (Jett's Mom), Андре Трикоте (Valmir), Майкл П. Норти (Hal)

Описание: Главный герой и его верный напарник должны найти съемный накопитель с секретными данными, касающимися федеральной программы защиты свидетелей, который, по случайному стечению обстоятельств, оказывается в руках прелестной воспитательницы детского сада. Но ситуацию усугубляет то, что за этой информацией параллельно охотятся албанские бандиты...



Видео: 1024x576 (16:9), 23.976 fps, MPEG4 AVC (х264) , ~ 2349kbps avg, 0,166 bit/pixel
Аудио #1: Русский: 48 kHz, AC3 Dolby Digital, 3/2 (L,C,R,l,r) + LFE ch, ~384 kbps [Профессиональный (полное дублирование)]
Аудио #2: Английский: 48 kHz, AC3 Dolby Digital, 3/2 (L,C,R,l,r) + LFE ch, ~384 kbps [Оригинал]


Видео
Идентификатор : 1
Формат : AVC
Формат/Информация : Advanced Video Codec
Профиль формата :
Параметр CABAC формата : Да
Параметр ReFrames формата : 12 кадров
Идентификатор кодека : V_MPEG4/ISO/AVC
Продолжительность : 1 ч. 40 м.
Битрейт : 2349 Кбит/сек
Ширина : 1024 пикселя
Высота : 576 пикселей
Соотношение сторон : 16:9
Режим частоты кадров : Постоянный
Частота кадров : 23,976 кадра/сек
Цветовое пространство : YUV
Субдискретизация насыщенности : 4:2:0
Битовая глубина : 8 бит
Тип развёртки : Прогрессивная
Бит/(Пиксели*Кадры) : 0.166
Размер потока : 1,60 Гбайт (73%)
Заголовок : potroks
Библиотека кодирования : x264 core 146 r2538 121396c
Настройки программы : cabac=1 / ref=12 / deblock=1:-2:-2 / analyse=0x3:0x113 / me=umh / subme=11 / psy=1 / psy_rd=1.03:0.08 / mixed_ref=1 / me_range=48 / chroma_me=1 / trellis=2 / 8x8dct=1 / cqm=0 / deadzone=21,11 / fast_pskip=0 / chroma_qp_offset=-3 / threads=9 / lookahead_threads=2 / sliced_threads=0 / nr=0 / decimate=0 / interlaced=0 / bluray_compat=0 / constrained_intra=0 / bframes=13 / b_pyramid=2 / b_adapt=2 / b_bias=0 / direct=3 / weightb=1 / open_gop=0 / weightp=2 / keyint=240 / keyint_min=23 / scenecut=40 / intra_refresh=0 / rc_lookahead=60 / rc=2pass / mbtree=0 / bitrate=2349 / ratetol=1.0 / qcomp=0.70 / qpmin=0 / qpmax=69 / qpstep=4 / cplxblur=20.0 / qblur=0.5 / vbv_maxrate=14000 / vbv_bufsize=14000 / nal_hrd=none / filler=0 / ip_ratio=1.35 / pb_ratio=1.25 / aq=1:0.80
Язык : English
Default : Да
Forced : Нет

Аудио #1
Идентификатор : 2
Формат : AC-3
Формат/Информация : Audio Coding 3
Расширение режима : CM (complete main)
Параметр Endianness формата : Big
Идентификатор кодека : A_AC3
Продолжительность : 1 ч. 40 м.
Вид битрейта : Постоянный
Битрейт : 384 Кбит/сек
Каналы : 6 каналов
Расположение каналов : Front: L C R, Side: L R, LFE
Частота : 48,0 КГц
Частота кадров : 31,250 кадров/сек (1536 spf)
Метод сжатия : С потерями
Размер потока : 275 Мбайт (12%)
Заголовок : Dub | DD 5.1 @ 384 kbps - R5
Язык : Russian
Default : Да
Forced : Нет

Аудио #2
Идентификатор : 3
Формат : AC-3
Формат/Информация : Audio Coding 3
Расширение режима : CM (complete main)
Параметр Endianness формата : Big
Идентификатор кодека : A_AC3
Продолжительность : 1 ч. 40 м.
Вид битрейта : Постоянный
Битрейт : 384 Кбит/сек
Каналы : 6 каналов
Расположение каналов : Front: L C R, Side: L R, LFE
Частота : 48,0 КГц
Частота кадров : 31,250 кадров/сек (1536 spf)
Метод сжатия : С потерями
Размер потока : 275 Мбайт (12%)
Заголовок : Original | DD 5.1 @ 384 kbps
Язык : English
Default : Нет
Forced : Нет

Текст #1
Идентификатор : 4
Формат : UTF-8
Идентификатор кодека : S_TEXT/UTF8
Идентификатор кодека/Информация : UTF-8 Plain Text
Язык : Russian
Default : Нет
Forced : Нет

Текст #2
Идентификатор : 5
Формат : UTF-8
Идентификатор кодека : S_TEXT/UTF8
Идентификатор кодека/Информация : UTF-8 Plain Text
Заголовок : Full
Язык : English
Default : Нет
Forced : Нет

Текст #3
Идентификатор : 6
Формат : UTF-8
Идентификатор кодека : S_TEXT/UTF8
Идентификатор кодека/Информация : UTF-8 Plain Text
Заголовок : SDH
Язык : English
Default : Нет
Forced : Нет

Меню
00:00:00.000 : en:(01)00:00:00:000
00:07:32.535 : en:(02)00:07:32:535
00:14:16.564 : en:(03)00:14:16:564
00:22:52.829 : en:(04)00:22:52:829
00:34:34.697 : en:(05)00:34:34:697
00:43:36.614 : en:(06)00:43:36:614
00:53:14.232 : en:(07)00:53:14:232
01:00:23.786 : en:(08)01:00:23:786
01:10:18.380 : en:(09)01:10:18:380
01:18:36.128 : en:(10)01:18:36:128
01:26:38.026 : en:(11)01:26:38:026
01:34:38.464 : en:(12)01:34:38:464




_________________



реклама партнёра


Вернуться к началу
 Профиль Отправить личное сообщение  
 
   Похожие торренты   Автор   Торрент   Размер 
В этой теме нет новых непрочитанных сообщений. Детсадовский полицейский 2 / Kindergarten Cop 2 [Комедия, 2016] BDRip-AVC, Dub [Лицензия]

salma3

5683 | 401

1.41 ГБ

В этой теме нет новых непрочитанных сообщений. Детсадовский полицейский 2 / Kindergarten Cop 2 [комедия, 2016] HDRip, Dub [Лицензия]

salma3

4490 | 126

1.46 ГБ

В этой теме нет новых непрочитанных сообщений. Детсадовский полицейский 2 / Kindergarten Cop 2 [Комедия, 2016] BDRemux 1080p, Dub [Лицензия]

salma3

185 | 23

21.1 ГБ

В этой теме нет новых непрочитанных сообщений. Детсадовский полицейский / Kindergarten Cop [боевик, комедия, криминал, 1990] BDRip, Mvo

salma3

25 | 1

1.46 ГБ

В этой теме нет новых непрочитанных сообщений. Детсадовский полицейский / Kindergarten Cop [Боевик, триллер, комедия, 1990] BDRip 720p, 2Dvo+6Mvo+3Avo+Sub

salma3

1 | 2

13.95 ГБ

В этой теме нет новых непрочитанных сообщений. Детсадовский полицейский / Kindergarten Cop [Боевик, триллер, комедия, 1990] BDRip 720p, 2Dvo+6Mvo+3Avo+Sub

salma3

9 | 3

10.9 ГБ

В этой теме нет новых непрочитанных сообщений. Космический полицейский / Space Cop [фантастика, боевик, комедия, 2016] BDRip 720p, Dvo

salma3

922 | 150

4.27 ГБ


Начать новую тему Ответить на тему  [ 1 сообщение ] 




Для Мосгорсуда, Роскомнадзора и рекламодателей:: mosgorsud-torrent[собачка]yandex.ru