Торрент файл
скачать торрент магнет ссылка Добавлен: 22 авг 2016, 21:31
Размер: 1.46 ГБ
Сидеров: 218
Личеров: 17
Статус: (salma3)
Автор

СообщениеДобавлено: 22 авг 2016, 21:31 

Не в сети
Супермодератор
Аватара пользователя
Дата регистрации:
15 фев 2012, 16:44
Возраст: 27
Спасибо: 5121 / 2089
Сообщения: 17282
Наш бренд – кризис / Our Brand Is Crisis
Страна: США
Производство: Participant Media, Smoke House
Год выпуска: 2015
Жанр: драма, комедия
Продолжительность: 01:47:50
Режиссер: Дэвид Гордон Грин
Авторы сценария: Питер Строхан, Рэйчел Бойнтон

В ролях: Сандра Буллок, Билли Боб Торнтон, Энтони Маки, Жоаким ди Алмейда, Энн Дауд, Скут МакНэри, Зои Казан, Стивен Флорес

Описание: Фильм, основанный на документальных съёмках, покажет изнанку избирательной кампании 2002 года, когда кандидат в президенты Боливии Гонсало Санчес де Лосада нанял политтехнологов из консалтинговой фирмы Greenberg Quinlan Rosner, чтобы прийти к победе...



Перевод: Профессиональный (многоголосый, закадровый) | официальный звук
Субтитры: нет

Качество: HDRip
Формат: АVI
Видео кодек: XviD
Аудио кодек: АС3
Видео: 720x400 (16:9), 23.976 fps, XviD ~1 658 kbps avg
Аудио: 48 kHz, AC3 Dolby Digital, 2/0 (L,R) ch, ~192 kbps
Дата премьеры (мир): 11 сентября 2015
ПРИМЕЧАНИЕ: ПРИСУТСТВУЕТ РЕКЛАМА!
General
Complete name : Our.Brand.Is.Crisis.2015.D.HDRip.1.46Gb_KOSHARA.avi
Format : AVI
Format/Info : Audio Video Interleave
File size : 1.46 GiB
Duration : 1h 47mn
Overall bit rate : 1 935 Kbps
Writing application : VirtualDubMod 1.5.10.2 (build 2540/release)
Writing library : VirtualDubMod build 2540/release
Video #0
ID : 0
Format : MPEG-4 Visual
Format profile : Advanced Simple@L5
Format settings, BVOP : 2
Format settings, QPel : No
Format settings, GMC : No warppoints
Format settings, Matrix : Custom
Codec ID : XVID
Codec ID/Hint : XviD
Duration : 1h 47mn
Bit rate : 1 658 Kbps
Width : 720 pixels
Height : 400 pixels
Display aspect ratio : 16:9
Frame rate : 23.976 fps
Color space : YUV
Chroma subsampling : 4:2:0
Bit depth : 8 bits
Scan type : Progressive
Compression mode : Lossy
Bits/(Pixel*Frame) : 0.240
Stream size : 1.25 GiB (86%)
Writing library : XviD 1.2.1 (UTC 2008-12-04)
Audio #1
ID : 1
Format : AC-3
Format/Info : Audio Coding 3
Mode extension : CM (complete main)
Format settings, Endianness : Big
Codec ID : 2000
Duration : 1h 47mn
Bit rate mode : Constant
Bit rate : 192 Kbps
Channel(s) : 2 channels
Channel positions : Front: L R
Sampling rate : 48.0 KHz
Compression mode : Lossy
Stream size : 148 MiB (10%)
Alignment : Split accross interleaves



_________________



реклама партнёра


Вернуться к началу
 Профиль Отправить личное сообщение  
 
   Похожие торренты   Автор   Торрент   Размер 
В этой теме нет новых непрочитанных сообщений. Наш бренд – кризис / Our Brand Is Crisis [драма, комедия, 2015] BDRip 720p, Mvo [официальный звук]

salma3

7 | 1

4.32 ГБ

В этой теме нет новых непрочитанных сообщений. Наш бренд – кризис / Our Brand Is Crisis [драма, комедия, 2015] BDRip 1080p, Mvo [официальный звук]

salma3

97 | 40

8.3 ГБ

В этой теме нет новых непрочитанных сообщений. Наш бренд – кризис / Our Brand Is Crisis [Драма, комедия, 2015] HDRip-AVC, Dvo

salma3

240 | 41

2.32 ГБ

В этой теме нет новых непрочитанных сообщений. Наш бренд – кризис [драма, комедия, 2015] HDRip, dvo

Dracon

787 | 28

1.37 ГБ

В этой теме нет новых непрочитанных сообщений. Наш бренд – кризис [драма, комедия, 2015] BDRip 720p, dvo+sub

Dracon

78 | 4

5.75 ГБ

В этой теме нет новых непрочитанных сообщений. Достоинство / The Timber [Драма, приключения, вестерн, 2015] HDRip, Mvo [Официальный звук]

salma3

516 | 88

1.37 ГБ

В этой теме нет новых непрочитанных сообщений. Штормагеддон / Stormageddon [фантастика, боевик, триллер, драма, 2015] HDRip, Mvo [Официальный звук]

salma3

1399 | 50

1.37 ГБ


Начать новую тему Ответить на тему  [ 1 сообщение ] 




Для Мосгорсуда, Роскомнадзора и рекламодателей:: mosgorsud-torrent[собачка]yandex.ru