Торрент файл
скачать торрент магнет ссылка Добавлен: 21 авг 2016, 21:34
Размер: 2.18 ГБ
Сидеров: 81
Личеров: 6
Статус: (salma3)
Автор

СообщениеДобавлено: 21 авг 2016, 21:34 

В сети
Супермодератор
Аватара пользователя
Дата регистрации:
15 фев 2012, 16:44
Возраст: 27
Спасибо: 5140 / 2090
Сообщения: 17470
Перевод: Любительский (двухголосый) [DeadSno & den904], субтитры: отсутствуют
Формат: BDRip, AVI, XviD, AC3
Страна: Китай
Режиссер: Дин Шэн / Ding Sheng
Жанр: боевик, триллер, драма, криминал
Продолжительность: 01:46:05
Год выпуска: 2015
В ролях: Энди Лау, Лю Е, Цяньюан Ванг, Рафу Ву, Ксиорай Джау, Лу Пенг

Описание: Фильм основан на реальных событиях, которые произошли с китайским актёром в 2004 году. Трое мужчин, переодетые в форму полицейских, выкрали актёра и потребовали выкуп в три миллиона юаней.



Видео: 720x304 (2.37:1), 24.000 fps, XviD build 50 ~2032 kbps avg, 0.39 bit/pixel
Аудио #1: Русский:48 kHz, AC3 Dolby Digital, 3/2 (L,C,R,l,r) + LFE ch, ~448 kbps[Любительский (двухголосый)]
Аудио #2: Китайский:48 kHz, AC3 Dolby Digital, 3/2 (L,C,R,l,r) + LFE ch, ~448 kbps[Оригинал]

Общее
Полное имя : D:\_Torrent\temp\Saving.Mr.Wu.2015.BDRip_by_vedigo.avi
Формат : AVI
Формат/Информация : Audio Video Interleave
Профиль формата : OpenDML
Размер файла : 2,18 Гбайт
Продолжительность : 1 ч. 46 м.
Общий поток : 2936 Кбит/сек
Программа кодирования : VirtualDubMod 1.5.10.3 (build 2550/release)
Библиотека кодирования : VirtualDubMod build 2550/release

Видео
Идентификатор : 0
Формат : MPEG-4 Visual
Профиль формата : Advanced Simple@L5
Параметр BVOP формата : 2
Параметр QPel формата : Нет
Параметр GMC формата : Без точки перехода
Параметр матрицы формата : Default (MPEG)
Идентификатор кодека : XVID
Идентификатор кодека/Подсказка : XviD
Продолжительность : 1 ч. 46 м.
Битрейт : 2022 Кбит/сек
Ширина : 720 пикселей
Высота : 304 пикселя
Соотношение сторон : 2,35:1
Частота кадров : 24,000 кадра/сек
Цветовое пространство : YUV
Субдискретизация насыщенности : 4:2:0
Битовая глубина : 8 бит
Тип развёртки : Прогрессивная
Метод сжатия : С потерями
Бит/(Пиксели*Кадры) : 0.385
Размер потока : 1,50 Гбайт (69%)
Библиотека кодирования : XviD 1.2.1 (UTC 2008-12-04)

Аудио #1
Идентификатор : 1
Формат : AC-3
Формат/Информация : Audio Coding 3
Расширение режима : CM (complete main)
Параметр Endianness формата : Big
Идентификатор кодека : 2000
Продолжительность : 1 ч. 46 м.
Вид битрейта : Постоянный
Битрейт : 448 Кбит/сек
Каналы : 6 каналов
Расположение каналов : Front: L C R, Side: L R, LFE
Частота : 48,0 КГц
Частота кадров : 31,250 кадров/сек (1536 spf)
Метод сжатия : С потерями
Размер потока : 340 Мбайт (15%)
Выравнивание : Разделение по промежуткам
Продолжительность промежутка : 42 мс. (1,00 видеокадр)
Время предзагрузки промежутка : 500 мс.

Аудио #2
Идентификатор : 2
Формат : AC-3
Формат/Информация : Audio Coding 3
Расширение режима : CM (complete main)
Параметр Endianness формата : Big
Идентификатор кодека : 2000
Продолжительность : 1 ч. 46 м.
Вид битрейта : Постоянный
Битрейт : 448 Кбит/сек
Каналы : 6 каналов
Расположение каналов : Front: L C R, Side: L R, LFE
Частота : 48,0 КГц
Частота кадров : 31,250 кадров/сек (1536 spf)
Метод сжатия : С потерями
Размер потока : 340 Мбайт (15%)
Выравнивание : Разделение по промежуткам
Продолжительность промежутка : 42 мс. (1,00 видеокадр)
Время предзагрузки промежутка : 500 мс.




_________________



реклама партнёра


Вернуться к началу
 Профиль Отправить личное сообщение  
 
   Похожие торренты   Автор   Торрент   Размер 
В этой теме нет новых непрочитанных сообщений. Спасти мистера Бэнкса / Saving Mr. Banks [драма, история, биография, музыка, 2013] BDRip 1080p, Mvo [BaibaKo]

Dracon

190 | 10

9.84 ГБ

В этой теме нет новых непрочитанных сообщений. Спасти мистера Бэнкса  / Saving Mr. Banks  [драма, история, биография, музыка, 2013] BDRip 720p, Dub [iTunes Russia]

Dracon

2 | 2

5.84 ГБ

В этой теме нет новых непрочитанных сообщений. Спасти мистера Бэнкса / Saving Mr. Banks [драма, история, биография, музыка, 2013] HDRip, Mvo

Dracon

721 | 21

1.45 ГБ

В этой теме нет новых непрочитанных сообщений. Спасти мистера Бэнкса / Saving Mr. Banks (драма, история, биография, музыка, 2013) DVDScr, dub [Звук с TS]

Dracon

698 | 5

1.36 ГБ

В этой теме нет новых непрочитанных сообщений. Спасти мистера Бэнкса / Saving Mr. Banks [драма, история, биография, музыка, 2013] HDRip, dub [Звук с TS]

Dracon

489 | 8

1.36 ГБ

В этой теме нет новых непрочитанных сообщений. Спасти мистера Бэнкса / Saving Mr. Banks [драма, история, биография, музыка, 2013] HDRip, Dub [iTunes Russia]

Dracon

6 | 2

2.05 ГБ

В этой теме нет новых непрочитанных сообщений. Воины вдвоём / Zan xian sheng yu zhao qian Hua [боевик, драма, 1978] DVDRip, Avo

salma3

4 | 4

1.46 ГБ


Начать новую тему Ответить на тему  [ 1 сообщение ] 




Для Мосгорсуда, Роскомнадзора и рекламодателей:: mosgorsud-torrent[собачка]yandex.ru