Торрент файл
скачать торрент магнет ссылка Добавлен: 21 авг 2016, 11:46
Размер: 1.3 ГБ
Сидеров: 753
Личеров: 36
Статус: (salma3)
Автор

СообщениеДобавлено: 21 авг 2016, 11:46 

Не в сети
Супермодератор
Аватара пользователя
Дата регистрации:
15 фев 2012, 16:44
Возраст: 28
Спасибо: 6563 / 2130
Сообщения: 43647
Год выхода: 2016
Жанр: драма, мелодрама, комедия
Режиссер: Мэтт Росс

В ролях: Вигго Мортенсен, Джордж МакКэй, Саманта Ислер, Анналиса Бассо, Николас Хэмилтон, Шри Крукс, Чарли Шотуэлл, Трин Миллер, Кэтрин Хан, Стив Зан

Описание: Они говорят на нескольких языках, знают квантовую физику и разбираются в философии. Они умеют охотиться и обращаться с оружием. Они живут в лесу в полной гармонии с природой. Лишь стечение обстоятельств заставляет их покинуть родной дом и отправиться в большой город. Что будет, когда они столкнутся с цивилизацией, когда на них обрушится первая любовь и мир гаджетов и социальных сетей?



Выпущено: США, Electric City Entertainment, ShivHans Pictures
Продолжительность: 01:59:33
Перевод: Профессиональный (многоголосый, закадровый) [Чистый звук]
ПРИМЕЧАНИЕ: ПРИСУТСТВУЕТ РЕКЛАМА!

Файл
Кодек: X264
Качество: WEB-DLRip-AVC
Видео: 720x302 (2,40:1), 23,976 fps, х264 ~ 1368 kbps avg, 0.262 bit/pixel
Аудио: 48,0 kHz, Audio Coding 3, 2 ch, ~192 kbps avg
Общее
Уникальный идентификатор : 218128913650303865677713370897276940607 (0xA41A19C46ED0D4DF82DF5AB0F25F313F)
Полное имя : D:TempCap1taH.FaHtast1k.2O16.WEB-DLRip-AVC by Vovan366.mkv
Формат : Matroska
Версия формата : Version 2
Размер файла : 1,30 Гбайт
Продолжительность : 1 ч. 59 м.
Общий поток : 1561 Кбит/сек
Дата кодирования : UTC 2016-08-19 12:44:19
Программа кодирования : mkvmerge v7.8.0 ('River Man') 32bit built on Apr 3 2015 12:11:22
Библиотека кодирования : libebml v1.3.1 + libmatroska v1.4.2
Видео
Идентификатор : 1
Формат : AVC
Формат/Информация : Advanced Video Codec
Профиль формата : High@L4.1
Параметр CABAC формата : Да
Параметр ReFrames формата : 10 кадров
Идентификатор кодека : V_MPEG4/ISO/AVC
Продолжительность : 1 ч. 59 м.
Битрейт : 1368 Кбит/сек
Ширина : 720 пикселей
Высота : 302 пикселя
Соотношение сторон : 2,40:1
Режим частоты кадров : Постоянный
Частота кадров : 24,000 кадра/сек
Цветовое пространство : YUV
Субдискретизация насыщенности : 4:2:0
Битовая глубина : 8 бит
Тип развёртки : Прогрессивная
Бит/(Пиксели*Кадры) : 0.262
Размер потока : 1,11 Гбайт (86%)
Библиотека кодирования : x264 core 146 r2538 121396c
Настройки программы : cabac=1 / ref=10 / deblock=1:-3:-3 / analyse=0x3:0x113 / me=umh / subme=10 / psy=1 / psy_rd=1.00:0.05 / mixed_ref=1 / me_range=48 / chroma_me=1 / trellis=2 / 8x8dct=1 / cqm=0 / deadzone=21,11 / fast_pskip=0 / chroma_qp_offset=-3 / threads=6 / lookahead_threads=1 / sliced_threads=0 / nr=0 / decimate=0 / interlaced=0 / bluray_compat=0 / constrained_intra=0 / bframes=10 / b_pyramid=2 / b_adapt=2 / b_bias=0 / direct=3 / weightb=1 / open_gop=0 / weightp=2 / keyint=240 / keyint_min=23 / scenecut=40 / intra_refresh=0 / rc_lookahead=40 / rc=2pass / mbtree=0 / bitrate=1368 / ratetol=1.0 / qcomp=0.60 / qpmin=0 / qpmax=69 / qpstep=4 / cplxblur=20.0 / qblur=0.5 / vbv_maxrate=14000 / vbv_bufsize=14000 / nal_hrd=none / filler=0 / ip_ratio=1.40 / pb_ratio=1.30 / aq=1:1.00
Default : Да
Forced : Нет
Основные цвета : BT.709
Характеристики трансфера : BT.709
Коэффициенты матрицы : BT.709
Аудио
Идентификатор : 2
Формат : AC-3
Формат/Информация : Audio Coding 3
Расширение режима : CM (complete main)
Параметр Endianness формата : Big
Идентификатор кодека : A_AC3
Продолжительность : 1 ч. 59 м.
Вид битрейта : Постоянный
Битрейт : 192 Кбит/сек
Каналы : 2 канала
Расположение каналов : Front: L R
Частота : 48,0 КГц
Битовая глубина : 16 бит
Метод сжатия : С потерями
Размер потока : 164 Мбайт (12%)
Default : Да
Forced : Нет



Релиз от: Vovan366


_________________
Проголосуй за трекер Открытый торрент трекер - RUS-MEDIA.ORG

Проголосуй Открытый торрент трекер - RUS-MEDIA.ORG



реклама партнёра


Вернуться к началу
 Профиль Отправить личное сообщение  
 
   Похожие торренты   Автор   Торрент   Размер 
В этой теме нет новых непрочитанных сообщений. Капитан Фантастик / Captain Fantastic [драма, мелодрама, комедия, 2016] WEB-DLRip 720p, Mvo

salma3

15 | 8

4.14 ГБ

В этой теме нет новых непрочитанных сообщений. Капитан Фантастик / Captain Fantastic [драма, мелодрама, комедия, 2016] WEB-DL 1080p, Mvo [iTunes]

salma3

1109 | 36

4.09 ГБ

В этой теме нет новых непрочитанных сообщений. Капитан Фантастик / Captain Fantastic [драма, мелодрама, комедия, 2016] HDRip, Mvo [iTunes]

salma3

551 | 154

1.45 ГБ

В этой теме нет новых непрочитанных сообщений. Капитан Фантастик / Captain Fantastic [драма, мелодрама, комедия, 2016] BDRip, Mvo [iTunes]

salma3

350 | 27

1.41 ГБ

В этой теме нет новых непрочитанных сообщений. Капитан Фантастик / Captain Fantastic [драма, мелодрама, комедия, 2016] HDRip, Mvo [iTunes]

salma3

971 | 134

2.18 ГБ

В этой теме нет новых непрочитанных сообщений. Капитан Фантастик / Captain Fantastic [Драма, мелодрама, комедия, 2016] BDRip 1080p, Mvo [iTunes]

salma3

256 | 162

13.99 ГБ

В этой теме нет новых непрочитанных сообщений. Капитан Фантастик / Captain Fantastic [Драма, мелодрама, комедия, 2016] BDRip 1080p, Mvo [iTunes]

marya111

644 | 109

7.53 ГБ


Начать новую тему Ответить на тему  [ 1 сообщение ] 




Для Мосгорсуда, Роскомнадзора и рекламодателей:: mosgorsud-torrent[собачка]yandex.ru