Торрент файл
скачать торрент магнет ссылка Добавлен: 18 авг 2016, 15:52
Размер: 1.16 ГБ
Сидеров: 116
Личеров: 3
Статус: (salma3)
Автор

СообщениеДобавлено: 18 авг 2016, 15:52 

Не в сети
Супермодератор
Аватара пользователя
Дата регистрации:
15 фев 2012, 16:44
Возраст: 27
Спасибо: 5139 / 2089
Сообщения: 17432
Перевод: Любительский (двухголосый) [DeadSno & den904]

Cубтитры: английские, китайские [вшитые]

Формат: WEBRip-AVC-AVC, MKV, H.264, AC3

Страна: Китай

Режиссер: Чжао Ванг

Жанр: триллер, ужасы

Продолжительность: 01:34:31

Год выпуска: 2016

В ролях: Руби Линь, Питер Хо, Кингскар Цзинь, Ван Цзи, Гай Юэ-Си, Ли Шань-Гйи, Ли Линь, Ши Чжи, Лю Ши-Цзе

Описание: Бин Чуань дарит своей девушке на день рождения круиз на корабле. Путешествие, одновременно, является и участием в игре с призом в виде большой денежной суммы. Однако уже на борту, влюблённые и другие участники узнают страшную новость. Победителем станет тот, кто, в буквальном смысле, доживёт до конца игры. И приз в ней – не столько обещанные деньги, сколько спасение собственной жизни.



Видео: 1280x544 (2.35:1), 24 fps, AVC (H.264), Advanced Simple@L5 ~ 1527 Кbps, 0.091 bit/pixel
Аудио: 48 kHz, AC3 Dolby Digital, 2/0 (L,R) ch, ~192 kbps

General
Unique ID : 236821225439304088621929535252258966689 (0xB22A1BE468DA376F83094489F1AD4CA1)
Complete name : E:\Игра у пропасти.2016_Klayd X.mkv
Format : Matroska
File size : 1.16 GiB
Duration : 1h 34mn
Overall bit rate : 1 754 Kbps
Encoded date : UTC 2016-08-09 18:52:15
Writing application : mkvmerge v6.2.0 ('Promised Land') built on Apr 28 2013 12:22:01
Writing library : libebml v1.3.0 + libmatroska v1.4.0

Video
ID : 1
Format : MPEG-4 Visual
Format profile : Advanced Simple@L5
Format settings, BVOP : Yes
Format settings, QPel : No
Format settings, GMC : No warppoints
Format settings, Matrix : Default (H.263)
Codec ID : XVID
Codec ID/Hint : XviD
Duration : 1h 34mn
Bit rate : 1 527 Kbps
Width : 1 280 pixels
Height : 544 pixels
Display aspect ratio : 2.35:1
Frame rate : 24.000 fps
Color space : YUV
Chroma subsampling : 4:2:0
Bit depth : 8 bits
Scan type : Progressive
Compression mode : Lossy
Bits/(Pixel*Frame) : 0.091
Stream size : 1.01 GiB (87%)
Writing library : XviD 1.2.1 (UTC 2008-12-04)

Audio
ID : 2
Format : AC-3
Format/Info : Audio Coding 3
Mode extension : CM (complete main)
Codec ID : A_AC3
Duration : 1h 34mn
Bit rate mode : Constant
Bit rate : 192 Kbps
Channel(s) : 2 channels
Channel positions : Front: L R
Sampling rate : 48.0 KHz
Bit depth : 16 bits
Compression mode : Lossy
Stream size : 130 MiB (11%)





_________________



реклама партнёра


Вернуться к началу
 Профиль Отправить личное сообщение  
 
   Похожие торренты   Автор   Торрент   Размер 
В этой теме нет новых непрочитанных сообщений. Полуночная игра / The Midnight Game [ужасы, триллер, 2013] DVDRip, Avo

salma3

64 | 3

1.36 ГБ

В этой теме нет новых непрочитанных сообщений. Игра палача / Hangman's Game [ужасы, триллер, детектив, 2015] WEB-DLRip, Avo

salma3

208 | 14

1.38 ГБ

В этой теме нет новых непрочитанных сообщений. Игра в молчанку / Game of Silence [S01] (драма, 2016) WEB-DL 1080p | IdeaFilm

marya111

60 | 9

17.58 ГБ

В этой теме нет новых непрочитанных сообщений. Не дыши / Don't Breathe [триллер, ужасы, 2016] WEBRip, Mvo

salma3

278 | 54

1.37 ГБ

В этой теме нет новых непрочитанных сообщений. Не дыши / Don't Breathe [ужасы, триллер, криминал, 2016] WEBRip-AVC, Mvo

salma3

3023 | 1102

2.56 ГБ

В этой теме нет новых непрочитанных сообщений. Нож для выживания / Survival Knife [ужасы, триллер, 2016] WEBRip, Avo

salma3

448 | 23

1.37 ГБ

В этой теме нет новых непрочитанных сообщений. Озеро Эри / Lake Eerie [Ужасы, фантастика, триллер, 2016] WEBRip, dvo

marya111

112 | 0

736.24 МБ


Начать новую тему Ответить на тему  [ 1 сообщение ] 




Для Мосгорсуда, Роскомнадзора и рекламодателей:: mosgorsud-torrent[собачка]yandex.ru