Торрент файл
скачать торрент магнет ссылка Добавлен: 15 авг 2016, 11:48
Размер: 1.5 ГБ
Сидеров: 36
Личеров: 9
Статус: (salma3)
Автор

СообщениеДобавлено: 15 авг 2016, 11:48 

Не в сети
Супермодератор
Аватара пользователя
Дата регистрации:
15 фев 2012, 16:44
Возраст: 27
Спасибо: 5139 / 2089
Сообщения: 17432
Год выхода: 2012
Жанр: семейный, приключения
Режиссер: Норберт Лехнер

В ролях: Бенедикт Вебер, Ксавер-Мария Бреннер, Юлия Форстнер, Янник Куль, Симон Майндль, Франциска Вайс, Франц Бухризер, Томас Баммер, Фриц Карл, Гётц Бюргер, Николай Дончев, Флориан Иннеребнер, Ганс Эшер

О фильме:
Еще одна экранизация произведения Марка Твена о приключениях Тома Сойера и Гекльберри Финна. Правда, на сей раз персонажи по воле создателей фильма перенесены в послевоенную Германию.



Производство: Германия, Австрия / Kevin Lee Filmgesellschaft, Rommel Film, Star Film
Продолжительность: 01:34:10
Перевод: любительский (одноголосый закадровый) [Вячеслав Прошин]
Файл
Качество: DVDRip
Формат: AVI
Видео: XviD, 720x304 (2.35:1), 25.000 fps, 1848 kbps, 0.338 bit/pixel
Аудио #1: русский, AC3 2.0, 48 kHz, 192 kbps
Аудио #2: немецкий, AC3 2.0, 48 kHz, 224 kbps
Субтитры: русские [Алексей Крылов], английские, немецкие внешние, SRT
Формат : AVI
Формат/Информация : Audio Video Interleave
Размер файла : 1,50 Гбайт
Продолжительность : 1 ч. 34 м.
Общий поток : 2279 Кбит/сек
Программа кодирования : VirtualDubModRus 1.5.10.2 (build 2542/release)
Библиотека кодирования : VirtualDubMod build 2542/release
Видео
Идентификатор : 0
Формат : MPEG-4 Visual
Профиль формата : Advanced Simple@L5
Параметр BVOP формата : Нет
Параметр QPel формата : Нет
Параметр GMC формата : Без точки перехода
Параметр матрицы формата : Выборочная
Идентификатор кодека : XVID
Идентификатор кодека/Подсказка : XviD
Продолжительность : 1 ч. 34 м.
Битрейт : 1848 Кбит/сек
Ширина : 720 пикселей
Высота : 304 пикселя
Соотношение сторон : 2,35:1
Частота кадров : 25,000 кадров/сек
Цветовое пространство : YUV
Субдискретизация насыщенности : 4:2:0
Битовая глубина : 8 бит
Тип развёртки : Прогрессивная
Метод сжатия : С потерями
Бит/(Пиксели*Кадры) : 0.338
Размер потока : 1,22 Гбайт (81%)
Библиотека кодирования : XviD 58
Аудио #1
Идентификатор : 1
Формат : AC-3
Формат/Информация : Audio Coding 3
Расширение режима : CM (complete main)
Параметр Endianness формата : Big
Идентификатор кодека : 2000
Продолжительность : 1 ч. 34 м.
Вид битрейта : Постоянный
Битрейт : 192 Кбит/сек
Каналы : 2 канала
Расположение каналов : Front: L R
Частота : 48,0 КГц
Метод сжатия : С потерями
Размер потока : 129 Мбайт (8%)
Выравнивание : Разделение по промежуткам
Продолжительность промежутка : 40 мс. (1,00 видеокадр)
Время предзагрузки промежутка : 500 мс.
Аудио #2
Идентификатор : 2
Формат : AC-3
Формат/Информация : Audio Coding 3
Расширение режима : CM (complete main)
Параметр Endianness формата : Big
Идентификатор кодека : 2000
Продолжительность : 1 ч. 34 м.
Вид битрейта : Постоянный
Битрейт : 224 Кбит/сек
Каналы : 2 канала
Расположение каналов : Front: L R
Частота : 48,0 КГц
Метод сжатия : С потерями
Размер потока : 151 Мбайт (10%)
Выравнивание : Разделение по промежуткам
Продолжительность промежутка : 40 мс. (1,00 видеокадр)
Время предзагрузки промежутка : 500 мс.

Релиз от:


_________________



реклама партнёра


Вернуться к началу
 Профиль Отправить личное сообщение  
 
   Похожие торренты   Автор   Торрент   Размер 
В этой теме нет новых непрочитанных сообщений. Тайна 2: Новые приключения на Амазонке / Taina 2 - A Aventura Continua [приключения, семейный, 2004] DVDRip, Mvo

salma3

17 | 5

690.12 МБ

В этой теме нет новых непрочитанных сообщений. Дом крокодилов / Das Haus der Krokodile [Детектив, приключения, семейный, 2012] HDRip-AVC, Mvo+Sub

salma3

52 | 5

2.18 ГБ

В этой теме нет новых непрочитанных сообщений. Дом крокодилов / Das Haus der Krokodile [Детектив, приключения, семейный, 2012] HDRip, Mvo

salma3

68 | 8

2.04 ГБ

В этой теме нет новых непрочитанных сообщений. Дом крокодилов / Das Haus der Krokodile [детектив, приключения, семейный, 2012] BDRip 1080p, Mvo+Sub

salma3

49 | 4

5.68 ГБ

В этой теме нет новых непрочитанных сообщений. Дом крокодилов / Das Haus der Krokodile [детектив, приключения, семейный, 2012] BDRip 720p, Mvo+Sub

salma3

67 | 6

2.7 ГБ

В этой теме нет новых непрочитанных сообщений. Я, папа и собака / I Heart Shakey [комедия, приключения, семейный, 2012] WEB-DLRip, Mvo

salma3

100 | 10

1.46 ГБ

В этой теме нет новых непрочитанных сообщений. Сокровища рыцарей: Тайна Милюзины / Schatzritter [Приключения, семейный, 2012] HDRip, Dub [Карусель]

salma3

142 | 7

1.45 ГБ


Начать новую тему Ответить на тему  [ 1 сообщение ] 




Для Мосгорсуда, Роскомнадзора и рекламодателей:: mosgorsud-torrent[собачка]yandex.ru