Торрент файл
скачать торрент магнет ссылка Добавлен: 11 авг 2016, 11:59
Размер: 1.46 ГБ
Сидеров: 40
Личеров: 7
Статус: (salma3)
Автор

СообщениеДобавлено: 11 авг 2016, 11:59 

Не в сети
Супермодератор
Аватара пользователя
Дата регистрации:
15 фев 2012, 16:44
Возраст: 27
Спасибо: 5130 / 2089
Сообщения: 17350
Год выхода: 1996
Жанр: Триллер, Драма, Мелодрама
Режиссер: [Брайан Гибсон

В ролях: Деми Мур /Demi Moore/, Алек Болдуин /Alec Baldwin/Джозеф Гордон-Левитт /Joseph Gordon-Levitt/, Энн Хэч /Anne Heche/, Джеймс Гандольфини /James Gandolfini/, Линдсэй Краузе /Lindsay Crouse/, Энтони Ло Бьянко /Anthony Lo Bianco/, Майкл Константин /Michael Constantine/, Мэтт Крэйвен /Matt Craven/, Тодд Сасмэн, Майкл Рисполи /Michael Rispoli/, Джули Холстон /Julie Halston/

О фильме:
Энни, молодая женщина-присяжная знакомится с приятным молодым человеком. Умный и уверенный в себе, он завоевывает девушку, но страсть, вспыхнувшая в ее сердце, может сыграть с ней злую шутку… Она не знает, что ее возлюбленный работает на мафию, а связь с ней нужна ему для достижения тайной цели – освобождения главаря преступной группировки и признания его невиновности в суде. Теперь ей нужно поступиться правдой ради спасения сына от преступника-психопата. " Мощный, психологический триллер отличается интересным, продуманным сюжетом, и любителям жанра не стоит его пропускать - сценарий по книге Джорджа Доуса Грина написал Тед Толли ("Молчание ягнят")

Страна: США
Продолжительность: 01:53:09
Перевод: Профессиональный (полное дублирование)

Файл
Кодек: XviD
Качество: HDTVRip
Видео: 704x304, 25.000 fps, 1458 kbps
Аудио: 48 kHz, AC3 Dolby Digital, 3/2 (L,C,R,l,r) + LFE ch, ~384 kbps
Общее
Полное имя : The.Juror.1996.HDTVRip.avi
Формат : AVI
Формат/Информация : Audio Video Interleave
Размер файла : 1,46 Гбайт
Продолжительность : 1 ч. 53 м.
Общий поток : 1852 Кбит/сек
Программа кодирования : VirtualDubMod 1.5.10.3 | www.virtualdub-fr.org || (build 2550/release)
Библиотека кодирования : VirtualDubMod build 2550/release
Видео
Идентификатор : 0
Формат : MPEG-4 Visual
Профиль формата : Advanced Simple@L5
Параметр BVOP формата : 1
Параметр QPel формата : Нет
Параметр GMC формата : Без точки перехода
Параметр матрицы формата : Выборочная
Идентификатор кодека : XVID
Идентификатор кодека/Подсказка : XviD
Продолжительность : 1 ч. 53 м.
Битрейт : 1458 Кбит/сек
Ширина : 704 пикс.
Высота : 304 пикс.
Соотношение сторон : 2,35:1
Частота кадров : 25,000 кадр/сек
Цветовое пространство : YUV
Подвыборка цветности : 4:2:0
Битовая глубина : 8 бит
Тип развёртки : Прогрессивная
Метод сжатия : С потерями
Бит/(Пиксели*Кадры) : 0.273
Размер потока : 1,15 Гбайт (79%)
Библиотека кодирования : XviD 73
Аудио
Идентификатор : 1
Формат : AC-3
Формат/Информация : Audio Coding 3
Расширение режима : CM (complete main)
Идентификатор кодека : 2000
Продолжительность : 1 ч. 53 м.
Вид битрейта : Постоянный
Битрейт : 384 Кбит/сек
Канал(ы) : 6 канала(ов)
Расположение каналов : Front: L C R, Side: L R, LFE
Частота : 48,0 КГц
Битовая глубина : 16 бит
Метод сжатия : С потерями
Размер потока : 311 Мбайт (21%)
Выравнивание : Разделение по промежуткам
Продолжительность промежутка : 40 мс. (1,00 видеокадр)
Время предзагрузки промежутка : 500 ms

Релиз от: Leon-masl


_________________



реклама партнёра


Вернуться к началу
 Профиль Отправить личное сообщение  
 
   Похожие торренты   Автор   Торрент   Размер 
В этой теме нет новых непрочитанных сообщений. Призрак и Тьма / The Ghost and the Darkness [триллер, приключения, драма, 1996] HDTVRip, Mvo

salma3

22 | 4

1.47 ГБ

В этой теме нет новых непрочитанных сообщений. Два дня в долине / 2 Days in the Valley [Триллер, криминал, комедия, 1996] HDTVRip, Mvo+Avo

salma3

56 | 0

1.46 ГБ

В этой теме нет новых непрочитанных сообщений. Золото Ули / Ulee's Gold [Драма, 1996] HDTVRip, Dvo

salma3

14 | 3

1.37 ГБ

В этой теме нет новых непрочитанных сообщений. Девушка №6 / Girl 6 [драма, комедия, 1996] HDTVRip, Mvo

salma3

37 | 6

1.37 ГБ

В этой теме нет новых непрочитанных сообщений. Луна пустыни / Mojave Moon [триллер, мелодрама, комедия, 1996] DVDRip,Mvo

salma3

15 | 2

1.45 ГБ

В этой теме нет новых непрочитанных сообщений. Летняя жара / Zomerhitte [триллер, драма, мелодрама, 2008] HDTVRip, Mvo

salma3

49 | 20

1.46 ГБ

В этой теме нет новых непрочитанных сообщений. Паутина желаний / Web of Desire [триллер, драма, мелодрама, 2009] HDTVRip-AVC, Mvo

salma3

39 | 2

1.69 ГБ


Начать новую тему Ответить на тему  [ 1 сообщение ] 




Для Мосгорсуда, Роскомнадзора и рекламодателей:: mosgorsud-torrent[собачка]yandex.ru