Торрент файл
скачать торрент магнет ссылка Добавлен: 03 авг 2016, 11:43
Размер: 2.18 ГБ
Сидеров: 0
Личеров: 2
Статус: (salma3)
Автор

СообщениеДобавлено: 03 авг 2016, 11:43 

Не в сети
Супермодератор
Аватара пользователя
Дата регистрации:
15 фев 2012, 16:44
Возраст: 27
Спасибо: 5121 / 2089
Сообщения: 17296
Производство: США / Castel Film Romania, Full Moon Entertainment
Жанр: Ужасы, Фэнтези
Продолжительность: 01:26:39
Перевод: Авторский (одноголосый закадровый)(А.Гаврилов новый), авторский (одноголосый закадровый)(А.Гаврилов старый)
Субтитры: отсутствуют
Режиссер: Тед Николау

Актеры: Андерс Хове, Денис Дафф, Кевин Спиртас, Мелани Шетнер, Майкл Денич, Памела Гордон, Йон Хайдук, Тадорел Филимон, Виорел Команич, Виорел Сергович

Описание:
Со времени пришествия зла, вампиры прославляют ночь, пируя на крови. Источник их силы заключен в священном кровавом камне. Случайной обладательницей этого камня становится американская туристка, приехавшая в Румынию, известную родину вампиров. Легендарный вампир Раду преследует девушку. Проходя через чудовищные испытания ей приходится выбирать между смертью и проклятьем…



Качество видео: BDRip-AVC
Видео: AVC, 1024x576 (16:9), 23.976 fps, 3 156 Kbps (0.223 bit/pixel)
Аудио #1: AC-3, 48.0 KHz, 2 ch, 256 Kbps, CBR (Russian)
Аудио #2: AC-3, 48.0 KHz, 2 ch, 192 Kbps, CBR (Russian)
Формат : Matroska
Версия формата : Version 2
Размер файла : 2,18 Гбайт
Продолжительность : 1 ч. 26 м.
Общий поток : 3606 Кбит/сек
Название фильма : Subspecies II
Дата кодирования : UTC 2016-08-02 03:52:32
Программа кодирования : mkvmerge v5.3.0 ('I could have danced') built on Feb 9 2012 10:38:07
Библиотека кодирования : libebml v1.2.3 + libmatroska v1.3.0
Attachment : Yes
Видео
Идентификатор : 1
Формат : AVC
Формат/Информация : Advanced Video Codec
Профиль формата : High@L4.1
Параметр CABAC формата : Да
Параметр ReFrames формата : 10 кадров
Идентификатор кодека : V_MPEG4/ISO/AVC
Продолжительность : 1 ч. 26 м.
Битрейт : 3156 Кбит/сек
Ширина : 1024 пикселя
Высота : 576 пикселей
Соотношение сторон : 16:9
Режим частоты кадров : Постоянный
Частота кадров : 23,976 кадра/сек
Цветовое пространство : YUV
Субдискретизация насыщенности : 4:2:0
Битовая глубина : 8 бит
Тип развёртки : Прогрессивная
Бит/(Пиксели*Кадры) : 0.223
Размер потока : 1,87 Гбайт (86%)
Библиотека кодирования : x264 core 146 r2538 121396c
Настройки программы : cabac=1 / ref=10 / deblock=1:-3:-3 / analyse=0x3:0x133 / me=umh / subme=10 / psy=1 / psy_rd=1.00:0.15 / mixed_ref=1 / me_range=32 / chroma_me=1 / trellis=2 / 8x8dct=1 / cqm=0 / deadzone=21,11 / fast_pskip=0 / chroma_qp_offset=-3 / threads=12 / lookahead_threads=2 / sliced_threads=0 / nr=0 / decimate=0 / interlaced=0 / bluray_compat=0 / constrained_intra=0 / bframes=8 / b_pyramid=2 / b_adapt=2 / b_bias=0 / direct=3 / weightb=1 / open_gop=0 / weightp=2 / keyint=240 / keyint_min=23 / scenecut=40 / intra_refresh=0 / rc_lookahead=40 / rc=2pass / mbtree=0 / bitrate=3156 / ratetol=1.0 / qcomp=0.60 / qpmin=0 / qpmax=69 / qpstep=4 / cplxblur=20.0 / qblur=0.5 / vbv_maxrate=50000 / vbv_bufsize=62500 / nal_hrd=none / filler=0 / ip_ratio=1.40 / pb_ratio=1.30 / aq=1:0.70
Default : Да
Forced : Нет
Аудио #1
Идентификатор : 2
Формат : AC-3
Формат/Информация : Audio Coding 3
Расширение режима : CM (complete main)
Параметр Endianness формата : Big
Идентификатор кодека : A_AC3
Продолжительность : 1 ч. 26 м.
Вид битрейта : Постоянный
Битрейт : 256 Кбит/сек
Каналы : 2 канала
Расположение каналов : Front: L R
Частота : 48,0 КГц
Битовая глубина : 16 бит
Метод сжатия : С потерями
Размер потока : 159 Мбайт (7%)
Заголовок : Gavrilov New AC3 2.0 256 kbps
Язык : Russian
Default : Нет
Forced : Нет
Аудио #2
Идентификатор : 3
Формат : AC-3
Формат/Информация : Audio Coding 3
Расширение режима : CM (complete main)
Параметр Endianness формата : Big
Идентификатор кодека : A_AC3
Продолжительность : 1 ч. 26 м.
Вид битрейта : Постоянный
Битрейт : 192 Кбит/сек
Каналы : 2 канала
Расположение каналов : Front: L R
Частота : 48,0 КГц
Битовая глубина : 16 бит
Метод сжатия : С потерями
Размер потока : 119 Мбайт (5%)
Заголовок : Gavrilov Old AC3 2.0 192 kbps
Язык : Russian
Default : Нет
Forced : Нет
Меню
00:00:00.000 : en:00:00:00.000
00:07:58.561 : en:00:07:58.561
00:16:46.422 : en:00:16:46.422
00:22:18.462 : en:00:22:18.462
00:28:33.378 : en:00:28:33.378
00:33:55.450 : en:00:33:55.450
00:41:06.214 : en:00:41:06.214
00:49:01.438 : en:00:49:01.438
00:58:48.024 : en:00:58:48.024
01:07:00.391 : en:01:07:00.391
01:16:30.294 : en:01:16:30.294
01:23:45.354 : en:01:23:45.354

Релиз от: K.E.N (NNM-CLUB)


_________________



реклама партнёра


Вернуться к началу
 Профиль Отправить личное сообщение  
 
   Похожие торренты   Автор   Торрент   Размер 
В этой теме нет новых непрочитанных сообщений. Подвиды 3: Жажда крови / Bloodlust: Subspecies III [ужасы, фэнтези, триллер, 1994] BDRip, Avo

salma3

15 | 7

1.45 ГБ

В этой теме нет новых непрочитанных сообщений. Подвиды 3: Жажда крови / Bloodlust: Subspecies III [ужасы, фэнтези, триллер, 1994] BDRip 1080p, Avo

salma3

26 | 8

8.96 ГБ

В этой теме нет новых непрочитанных сообщений. Подвиды 3: Жажда Крови / Bloodlust: Subspecies III [ужасы, фэнтези, триллер, 1994] BDRip 720р, Avo

salma3

0 | 0

3.8 ГБ

В этой теме нет новых непрочитанных сообщений. Подвиды 3: Жажда Крови / Bloodlust: Subspecies III [ужасы, фэнтези, триллер, 1994] BDRemux 1080p, Avo

salma3

7 | 3

15.34 ГБ

В этой теме нет новых непрочитанных сообщений. Байки из склепа: Кровавый бордель / Bordello of Blood [Ужасы, Фэнтези, Комедия, 1996] BDRip-AVC, Mvo+Avo

salma3

249 | 51

2.18 ГБ

В этой теме нет новых непрочитанных сообщений. Лепрекон / Leprechaun [ужасы, фэнтези, комедия, 1993] BDRip, Mvo

salma3

22 | 4

1.45 ГБ

В этой теме нет новых непрочитанных сообщений. Лепрекон / Leprechaun [ужасы, фэнтези, комедия, 1993] BDRip 1080p, Mvo+Sub

salma3

14 | 4

7.75 ГБ


Начать новую тему Ответить на тему  [ 1 сообщение ] 




Для Мосгорсуда, Роскомнадзора и рекламодателей:: mosgorsud-torrent[собачка]yandex.ru