Торрент файл
скачать торрент магнет ссылка Добавлен: 02 авг 2016, 13:51
Размер: 2.3 ГБ
Сидеров: 185
Личеров: 20
Статус: (salma3)
Автор

СообщениеДобавлено: 02 авг 2016, 13:51 

Не в сети
Супермодератор
Аватара пользователя
Дата регистрации:
15 фев 2012, 16:44
Возраст: 27
Спасибо: 5121 / 2089
Сообщения: 17282
Год выпуска: 2016
Жанр: Боевик, драма, военный
Выпущено: США, UFO International Productions
Режиссер: Дон Майкл Пол

В ролях: Найджел Барбер, Чад Коллинз, Пресцилиана Эспаролини, Энок Фрост, Ник Гомес, Деннис Хейсбёрт, Равиль Исянов, Велислав Павлов, Стефани Вогт, Билли Зейн

О фильме: Новая миссия для лучшего снайпера подразделения морской пехоты Брэндона Беккета оборачивается дуэлью с другим асом – Газаковым, бывшим российским военным, который ныне работает на тех, кто больше заплатит.



Файл
Качество: WEB-DLRip (AVC)
Видео: MPEG-4 AVC, 2743 Кбит/с, 1024x576, 25 кадр/с
Аудио: Русский (AC3, 6 ch, 384 Кбит/с), английский (AC3, 2 ch, 192 Кбит/с)
Размер: 2.30 ГБ
Продолжительность: 01:39:08
Перевод: Профессиональный многоголосый
Субтитры: Русские, украинские, английские
Сохранены оригинальные чаптеры как на исходном WEB-DL.
Озвучивание - Профессиональное многоголосое (iTunes Russia)
x264 [info]: frame I:1516 Avg QP:15.30 size: 77079
x264 [info]: frame P:44005 Avg QP:18.35 size: 25462
x264 [info]: frame B:97087 Avg QP:20.31 size: 8254
x264 [info]: consecutive B-frames: 7.0% 9.4% 9.8% 54.6% 7.5% 9.2% 1.0% 1.0% 0.3% 0.1% 0.2%
x264 [info]: mb I I16..4: 7.5% 68.3% 24.2%
x264 [info]: mb P I16..4: 0.9% 15.4% 1.6% P16..4: 29.1% 32.6% 11.7% 2.2% 0.2% skip: 6.2%
x264 [info]: mb B I16..4: 0.1% 1.7% 0.2% B16..8: 32.1% 22.4% 4.0% direct: 6.3% skip:33.3% L0:36.9% L1:46.6% BI:16.6%
x264 [info]: 8x8 transform intra:83.3% inter:51.4%
x264 [info]: direct mvs spatial:98.2% temporal:1.8%
x264 [info]: coded y,uvDC,uvAC intra: 90.1% 76.4% 48.5% inter: 25.4% 15.0% 6.9%
x264 [info]: i16 v,h,dc,p: 15% 11% 8% 67%
x264 [info]: i8 v,h,dc,ddl,ddr,vr,hd,vl,hu: 10% 12% 8% 8% 11% 11% 13% 12% 16%
x264 [info]: i4 v,h,dc,ddl,ddr,vr,hd,vl,hu: 12% 13% 6% 7% 13% 12% 14% 10% 13%
x264 [info]: i8c dc,h,v,p: 37% 31% 18% 14%
x264 [info]: Weighted P-Frames: Y:1.8% UV:0.6%
x264 [info]: ref P L0: 59.1% 11.5% 14.5% 4.1% 3.2% 2.0% 1.8% 0.9% 0.9% 0.7% 0.7% 0.6% 0.1% 0.0%
x264 [info]: ref B L0: 84.6% 8.3% 2.9% 1.4% 0.8% 0.7% 0.5% 0.3% 0.3% 0.2% 0.1%
x264 [info]: ref B L1: 96.2% 3.8%
x264 [info]: kb/s:2741.95

Общее
Уникальный идентификатор : 186024266057897781566511524865311561125 (0x8BF2F86EA5EB481E9FCE4D2B30E4D5A5)
Полное имя : D:ЗагрузкиSniper.Ghost.Shooter.2016.x264.WEB-DLRip.AVC.ExKinoRay.mkv
Формат : Matroska
Версия формата : Version 2
Размер файла : 2,30 Гбайт
Продолжительность : 1 ч. 39 м.
Общий поток : 3321 Кбит/сек
Название фильма : Cпайпер: воин призрак.2016.Rip by: ollan
Дата кодирования : UTC 2016-08-01 13:11:36
Программа кодирования : mkvmerge v5.6.0 ('Kenya Kane') built on May 27 2012 16:44:04
Библиотека кодирования : libebml v1.2.3 + libmatroska v1.3.0
Обложка : Yes
Attachments : Cover - Sniper.Ghost.Shooter.png
Видео
Идентификатор : 1
Формат : AVC
Формат/Информация : Advanced Video Codec
Профиль формата : High@L4.1
Параметр CABAC формата : Да
Параметр ReFrames формата : 12 кадров
Идентификатор кодека : V_MPEG4/ISO/AVC
Продолжительность : 1 ч. 39 м.
Битрейт : 2743 Кбит/сек
Ширина : 1024 пикселя
Высота : 576 пикселей
Соотношение сторон : 16:9
Режим частоты кадров : Постоянный
Частота кадров : 23,976 (24000/1001) кадра/сек
Цветовое пространство : YUV
Субдискретизация насыщенности : 4:2:0
Битовая глубина : 8 бит
Тип развёртки : Прогрессивная
Бит/(Пиксели*Кадры) : 0.194
Размер потока : 1,85 Гбайт (81%)
Библиотека кодирования : x264 core 146 r2538 121396c
Настройки программы : cabac=1 / ref=12 / deblock=1:-3:-3 / analyse=0x3:0x133 / me=umh / subme=11 / psy=1 / psy_rd=1.00:0.08 / mixed_ref=1 / me_range=48 / chroma_me=1 / trellis=2 / 8x8dct=1 / cqm=0 / deadzone=21,11 / fast_pskip=0 / chroma_qp_offset=-3 / threads=12 / lookahead_threads=3 / sliced_threads=0 / nr=0 / decimate=0 / interlaced=0 / bluray_compat=0 / constrained_intra=0 / bframes=10 / b_pyramid=2 / b_adapt=2 / b_bias=0 / direct=3 / weightb=1 / open_gop=0 / weightp=2 / keyint=240 / keyint_min=23 / scenecut=40 / intra_refresh=0 / rc_lookahead=40 / rc=2pass / mbtree=0 / bitrate=2743 / ratetol=1.0 / qcomp=0.60 / qpmin=0 / qpmax=69 / qpstep=4 / cplxblur=20.0 / qblur=0.5 / vbv_maxrate=50000 / vbv_bufsize=62500 / nal_hrd=none / filler=0 / ip_ratio=1.40 / pb_ratio=1.30 / aq=1:1.00
Язык : English
Default : Да
Forced : Нет
Аудио #1
Идентификатор : 2
Формат : AC-3
Формат/Информация : Audio Coding 3
Расширение режима : CM (complete main)
Параметр Endianness формата : Big
Идентификатор кодека : A_AC3
Продолжительность : 1 ч. 39 м.
Вид битрейта : Постоянный
Битрейт : 384 Кбит/сек
Каналы : 6 каналов
Расположение каналов : Front: L C R, Side: L R, LFE
Частота : 48,0 КГц
Частота кадров : 31,250 кадров/сек (1536 spf)
Метод сжатия : С потерями
Размер потока : 272 Мбайт (12%)
Заголовок : Профессиональный многоголосый (iTunes Russia)
Язык : Russian
Default : Да
Forced : Нет
Аудио #2
Идентификатор : 3
Формат : AC-3
Формат/Информация : Audio Coding 3
Расширение режима : CM (complete main)
Параметр Endianness формата : Big
Идентификатор кодека : A_AC3
Продолжительность : 1 ч. 39 м.
Вид битрейта : Постоянный
Битрейт : 192 Кбит/сек
Каналы : 2 канала
Расположение каналов : Front: L R
Частота : 48,0 КГц
Частота кадров : 31,250 кадров/сек (1536 spf)
Метод сжатия : С потерями
Размер потока : 136 Мбайт (6%)
Язык : English
Default : Нет
Forced : Нет
Текст #1
Идентификатор : 4
Формат : UTF-8
Идентификатор кодека : S_TEXT/UTF8
Идентификатор кодека/Информация : UTF-8 Plain Text
Заголовок : Full
Язык : Russian
Default : Нет
Forced : Нет
Текст #2
Идентификатор : 5
Формат : UTF-8
Идентификатор кодека : S_TEXT/UTF8
Идентификатор кодека/Информация : UTF-8 Plain Text
Заголовок : Full
Язык : Ukrainian
Default : Нет
Forced : Нет
Текст #3
Идентификатор : 6
Формат : UTF-8
Идентификатор кодека : S_TEXT/UTF8
Идентификатор кодека/Информация : UTF-8 Plain Text
Заголовок : Forced
Язык : English
Default : Нет
Forced : Нет
Текст #4
Идентификатор : 7
Формат : UTF-8
Идентификатор кодека : S_TEXT/UTF8
Идентификатор кодека/Информация : UTF-8 Plain Text
Заголовок : Full
Язык : English
Default : Нет
Forced : Нет
Меню
00:00:00.000 : en:Chapter 01
00:11:49.584 : en:Chapter 02
00:16:06.257 : en:Chapter 03
00:26:35.468 : en:Chapter 05
00:34:49.086 : en:Chapter 06
00:41:14.262 : en:Chapter 07
00:45:08.663 : en:Chapter 08
00:49:00.061 : en:Chapter 09
00:53:00.926 : en:Chapter 10
01:02:11.434 : en:Chapter 11
01:10:38.232 : en:Chapter 12
01:14:05.981 : en:Chapter 13
01:20:28.196 : en:Chapter 14
01:25:45.429 : en:Chapter 15
01:34:35.500 : en:Chapter 16





Релиз от: Rip by:


_________________



реклама партнёра


Вернуться к началу
 Профиль Отправить личное сообщение  
 
   Похожие торренты   Автор   Торрент   Размер 
В этой теме нет новых непрочитанных сообщений. Cпайпер: воин призрак / Sniper: Ghost Shooter [Боевик, драма, военный, 2016] WEB-DL 1080p, Mvo [iTunes]

salma3

473 | 51

3.83 ГБ

В этой теме нет новых непрочитанных сообщений. Cпайпер: воин призрак / Sniper: Ghost Shooter [боевик, драма, военный, 2016] WEB-DL 720p, Mvo [iTunes]

salma3

0 | 0

3.11 ГБ

В этой теме нет новых непрочитанных сообщений. Снайпер: Призрачный стрелок / Sniper: Ghost Shooter [боевик, драма, военный, 2016] WEBDLRip, Mvo [iTunes]

salma3

299 | 88

1.46 ГБ

В этой теме нет новых непрочитанных сообщений. Воин-призрак / Ghost Warrior [Фантастика, боевик, 1985] HDTV 1080i, Dvo

salma3

5 | 7

3.54 ГБ

В этой теме нет новых непрочитанных сообщений. Снайпер: Специальный отряд / Sniper: Special Ops [драма, военный, 2016] WEB-DLRip, Mvo

salma3

3066 | 208

1.37 ГБ

В этой теме нет новых непрочитанных сообщений. Снайпер / American Sniper (Клинт Иствуд) [боевик, драма, военный, биография, 2014] HDRip, Dub [iTunes]

Dracon

5 | 1

1.37 ГБ

В этой теме нет новых непрочитанных сообщений. Снайпер / American Sniper (Клинт Иствуд) [боевик, драма, военный, биография, 2014] BDRip 720p, Dub [iTunes]

Dracon

7 | 2

5.78 ГБ


Начать новую тему Ответить на тему  [ 1 сообщение ] 




Для Мосгорсуда, Роскомнадзора и рекламодателей:: mosgorsud-torrent[собачка]yandex.ru