Торрент файл
скачать торрент магнет ссылка Добавлен: 29 июл 2016, 14:43
Размер: 2.61 ГБ
Сидеров: 0
Личеров: 0
Статус: (salma3)
Автор

СообщениеДобавлено: 29 июл 2016, 14:43 

Не в сети
Супермодератор
Аватара пользователя
Дата регистрации:
15 фев 2012, 16:44
Возраст: 27
Спасибо: 5143 / 2090
Сообщения: 17514
Год выхода: 2010
Жанр: Комедия
Режиссер: Риса Брамон Гарсия

В ролях: Дональд Сазерленд, Расселл Питерс, Терра Винеса, Ребекка Ромин, Сара Ремер, Россиф Сазерленд, Мак Файф, Джед Риис, Мэри Уолш, Дебора Тикер, Джоэль Хинис, Кори Ли, Педро Мигель Арсе, Скотт Маджи

О фильме:
Бывший угонщик автомобилей Винс выходит из тюрьмы и хочет завязать с криминальным прошлым. Но его бывший босс Крански настаивает, чтобы Винс отработал свой долг и поработал на него еще год. Задев на улице автомобиль сексапильной красотки Белинды, Винс уговаривает ее не вызывать полицию и берется отремонтировать машину. Болтаясь без дела по гаражу, пока Винс прикручивает бампер, Белинда натыкается на странную скульптуру, сваренную из кузовов битых машин, которую бывший угонщик сделал еще до отсидки. Красотка оказывается владелицей галереи современного искусства и берется продвигать творчество Винса. Винс становится популярен. Никто не знает, что в свободное от творчества время он угоняет автомобили. Конечно же, новоявленный скульптор влюбляется в секретаршу галереи — молодую художницу, а Белинда имеет на него свои виды…

Страна: Канада
Студия: Alcina Pictures, Myriad Pictures, Ontario Media Development Corporation (OMDC), Téléfilm Canada
Продолжительность: 01:27:27
Перевод: Профессиональный многоголосый

Файл
Кодек: x264
Качество: BDRip 720p
Видео: MPEG-4 AVC, 3000 Кбит/с, 1280x720, 23.976 кадр/с
Аудио #1: AC3, 6 ch, 640 Кбит/с | Русский
Аудио #2: AC3, 6 ch, 640 Кбит/с | Английский
Общее
Уникальный идентификатор : 248551033203242232091964963552739004662 (0xBAFD3010BDC1D474AD5DC891C1C110F6)
Полное имя : The.Con.Artist.2010.BDRip.720p.mkv
Формат : Matroska
Версия формата : Version 4 / Version 2
Размер файла : 2,61 Гбайт
Продолжительность : 1 ч. 27 м.
Общий поток : 4278 Кбит/сек
Название фильма : The Con Artist
Режиссёр : Risa Bramon Garcia
Дата кодирования : UTC 2016-07-28 05:41:42
Программа кодирования : mkvmerge v9.2.0 ('Photograph') 32bit
Библиотека кодирования : libebml v1.3.3 + libmatroska v1.4.4
Attachements : cover.jpg
Release : Koenig
DURATION : 01:27:28.032000000
NUMBER_OF_FRAMES : 164001
NUMBER_OF_BYTES : 419842560
_STATISTICS_WRITING_APP : mkvmerge v9.2.0 ('Photograph') 32bit
_STATISTICS_WRITING_DATE_UTC : 2016-07-28 05:41:42
_STATISTICS_TAGS : BPS DURATION NUMBER_OF_FRAMES NUMBER_OF_BYTES
Видео
Идентификатор : 1
Формат : AVC
Формат/Информация : Advanced Video Codec
Профиль формата : High@L4.1
Параметр CABAC формата : Да
Параметр ReFrames формата : 9 кадров
Идентификатор кодека : V_MPEG4/ISO/AVC
Продолжительность : 1 ч. 27 м.
Битрейт : 2999 Кбит/сек
Ширина : 1280 пикселей
Высота : 720 пикселей
Соотношение сторон : 16:9
Режим частоты кадров : Постоянный
Частота кадров : 23,976 кадра/сек
Цветовое пространство : YUV
Субдискретизация насыщенности : 4:2:0
Битовая глубина : 8 бит
Тип развёртки : Прогрессивная
Бит/(Пиксели*Кадры) : 0.136
Размер потока : 1,78 Гбайт (68%)
Библиотека кодирования : x264 core 148 r2692 64f4e24
Настройки программы : cabac=1 / ref=9 / deblock=1:-3:-3 / analyse=0x3:0x133 / me=umh / subme=10 / psy=1 / psy_rd=1.00:0.00 / mixed_ref=1 / me_range=32 / chroma_me=1 / trellis=2 / 8x8dct=1 / cqm=0 / deadzone=21,11 / fast_pskip=0 / chroma_qp_offset=-2 / threads=3 / lookahead_threads=1 / sliced_threads=0 / nr=0 / decimate=1 / interlaced=0 / bluray_compat=0 / constrained_intra=0 / bframes=8 / b_pyramid=2 / b_adapt=2 / b_bias=0 / direct=3 / weightb=1 / open_gop=0 / weightp=2 / keyint=240 / keyint_min=23 / scenecut=40 / intra_refresh=0 / rc_lookahead=40 / rc=2pass / mbtree=1 / bitrate=2999 / ratetol=1.0 / qcomp=0.60 / qpmin=10 / qpmax=51 / qpstep=4 / cplxblur=20.0 / qblur=0.5 / vbv_maxrate=50000 / vbv_bufsize=62500 / nal_hrd=none / filler=0 / ip_ratio=1.40 / aq=1:1.00
Default : Да
Forced : Нет
Аудио #1
Идентификатор : 2
Формат : AC-3
Формат/Информация : Audio Coding 3
Расширение режима : CM (complete main)
Параметр Endianness формата : Big
Идентификатор кодека : A_AC3
Продолжительность : 1 ч. 27 м.
Вид битрейта : Постоянный
Битрейт : 640 Кбит/сек
Каналы : 6 каналов
Расположение каналов : Front: L C R, Side: L R, LFE
Частота : 48,0 КГц
Метод сжатия : С потерями
Размер потока : 400 Мбайт (15%)
Заголовок : MVO
Язык : Russian
Default : Да
Forced : Нет
Аудио #2
Идентификатор : 3
Формат : AC-3
Формат/Информация : Audio Coding 3
Расширение режима : CM (complete main)
Параметр Endianness формата : Big
Идентификатор кодека : A_AC3
Продолжительность : 1 ч. 27 м.
Вид битрейта : Постоянный
Битрейт : 640 Кбит/сек
Каналы : 6 каналов
Расположение каналов : Front: L C R, Side: L R, LFE
Частота : 48,0 КГц
Метод сжатия : С потерями
Размер потока : 400 Мбайт (15%)
Язык : English
Default : Нет
Forced : Нет
Меню
00:00:00.000 : en:Chapter 1
00:10:14.989 : en:Chapter 2
00:20:38.946 : en:Chapter 3
00:31:37.770 : en:Chapter 4
00:43:12.631 : en:Chapter 5
00:53:16.943 : en:Chapter 6
01:04:09.178 : en:Chapter 7
01:13:34.284 : en:Chapter 8
x264 [info]: frame I:1040 Avg QP:14.55 size:111723
x264 [info]: frame P:27712 Avg QP:16.87 size: 33415
x264 [info]: frame B:97057 Avg QP:18.91 size: 9510
x264 [info]: consecutive B-frames: 2.0% 2.3% 9.0% 22.3% 15.3% 46.2% 2.0% 0.3% 0.7%


_________________



реклама партнёра


Вернуться к началу
 Профиль Отправить личное сообщение  
 
   Похожие торренты   Автор   Торрент   Размер 
В этой теме нет новых непрочитанных сообщений. Художник-вор / The Con Artist [Комедия, 2010] BDRip 1080p, Mvo+Sub

salma3

40 | 1

8.34 ГБ

В этой теме нет новых непрочитанных сообщений. Художник и натурщица / The Artist and the Model / El artista y la modelo (Фернандо Труэба / Fernando Trueba) [2012г., триллер, HDRip] sub

Alfredovich

165 | 4

1.46 ГБ

В этой теме нет новых непрочитанных сообщений. Regina Crystal / Artist And Model (2015) HD 720p

Dile-1

4 | 24

382.49 МБ

В этой теме нет новых непрочитанных сообщений. Художник / El artista (Мариано Кон / Mariano Cohn, Гастон Дюпра / Gastón Duprat) [2008г., Аргентина, Италия, драма, комедия, SATRip] MVO

Alfredovich

2 | 0

1.45 ГБ

В этой теме нет новых непрочитанных сообщений. Как выйти замуж за 3 дня / Leap Year [мелодрама, комедия, 2010] BDRip 720p, Dub+Dvo+Avo+Sub

salma3

92 | 7

4.56 ГБ

В этой теме нет новых непрочитанных сообщений. Больше, чем друг / The Switch [драма, мелодрама, комедия, 2010] BDRip 720p, Dub+Mvo

salma3

53 | 6

4.82 ГБ

В этой теме нет новых непрочитанных сообщений. Рамона и Бизус / Ramona and Beezus [фэнтези, комедия, приключения, 2010] BDRip 720p, Mvo=Sub

salma3

62 | 9

4 ГБ


Начать новую тему Ответить на тему  [ 1 сообщение ] 




Для Мосгорсуда, Роскомнадзора и рекламодателей:: mosgorsud-torrent[собачка]yandex.ru