Торрент файл
скачать торрент магнет ссылка Добавлен: 22 июл 2016, 14:11
Размер: 1.47 ГБ
Сидеров: 36
Личеров: 8
Статус: (salma3)
Автор

СообщениеДобавлено: 22 июл 2016, 14:11 

Не в сети
Супермодератор
Аватара пользователя
Дата регистрации:
15 фев 2012, 16:44
Возраст: 27
Спасибо: 5143 / 2090
Сообщения: 17513
Воины дюн / Dune Warriors

Год выпуска: 1991
Жанр: фантастика, боевик, приключения
Режиссер: Сирио Х. Сантьяго

В ролях: Дэвид Кэрредин, Рик Хилл, Люк Аскью, Джиллиан МакУиртер, Блейк Бойд, Вэл Гарай, Джозеф Дзуккеро, Бон Вибар, Генри Стрцалковский, Данте Варона, Мария Исабель Лопес, Ник Николсон, Нед Хурани, Дэниэл Николсон, Джоэнн Гриффин.

Описание:
Земля 2040 года… Ядерная война оставила после себя выжженую пустыню, зараженную эасухой и анархией. Бандиты под предводительством безжалостного полевого командира Вильяма, намереваются захватить и разграбить деревушку Чин-Ли, обладающую немалыми запасами воды. Только небольшая группа воинов-наемников попытается стать на пути у бесчинствующих подонков…



Страна: США, Филиппины
Продолжительность: 01:33:34
Перевод: Любительский (одноголосый)

Файл
Качество: HDRip
Формат файла: AVI
Видео кодек: XviD
Аудио кодек: AC3
Видео: 704x400 (1.76:1), 23.976 fps, XviD build 73 ~1843 kbps avg, 0.273 bit/pixel
Аудио1: Русский: 48.0 kHz, AC3 Dolby Digital, 2/0 (L,R) ch, ~192 kbps [одноголосый]
Аудио2: Английский: ]48.0 kHz, AC3 Dolby Digital, 2/0 (L,R) ch, ~192 kbps [Оригинал]


General
Format : AVI
Format/Info : Audio Video Interleave
File size : 1.47 GiB
Duration : 1h 33mn
Overall bit rate : 2 241 Kbps
Writing application : VirtualDubMod 1.5.10.3 | www.virtualdub-fr.org || (build 2550/release)
Writing library : VirtualDubMod build 2550/release

Video
ID : 0
Format : MPEG-4 Visual
Format profile : Advanced Simple@L5
Format settings, BVOP : 1
Format settings, QPel : No
Format settings, GMC : No warppoints
Format settings, Matrix : Custom
Codec ID : XVID
Codec ID/Hint : XviD
Duration : 1h 33mn
Bit rate : 1 843 Kbps
Width : 704 pixels
Height : 400 pixels
Display aspect ratio : 16:9
Frame rate : 23.976 fps
Color space : YUV
Chroma subsampling : 4:2:0
Bit depth : 8 bits
Scan type : Progressive
Compression mode : Lossy
Bits/(Pixel*Frame) : 0.273
Stream size : 1.21 GiB (82%)
Writing library : XviD 73

Audio #1
ID : 1
Format : AC-3
Format/Info : Audio Coding 3
Mode extension : CM (complete main)
Format settings, Endianness : Big
Codec ID : 2000
Duration : 1h 33mn
Bit rate mode : Constant
Bit rate : 192 Kbps
Channel(s) : 2 channels
Channel positions : Front: L R
Sampling rate : 48.0 KHz
Bit depth : 16 bits
Compression mode : Lossy
Stream size : 129 MiB (9%)
Alignment : Split accross interleaves
Interleave, duration : 42 ms (1.00 video frame)
Interleave, preload duration : 500 ms

Audio #2
ID : 2
Format : AC-3
Format/Info : Audio Coding 3
Mode extension : CM (complete main)
Format settings, Endianness : Big
Codec ID : 2000
Duration : 1h 33mn
Bit rate mode : Constant
Bit rate : 192 Kbps
Channel(s) : 2 channels
Channel positions : Front: L R
Sampling rate : 48.0 KHz
Bit depth : 16 bits
Compression mode : Lossy
Stream size : 129 MiB (9%)
Alignment : Split accross interleaves
Interleave, duration : 42 ms (1.00 video frame)
Interleave, preload duration : 500 ms




_________________



реклама партнёра


Вернуться к началу
 Профиль Отправить личное сообщение  
 
   Похожие торренты   Автор   Торрент   Размер 
В этой теме нет новых непрочитанных сообщений. Космические воины / Space Warriors [семейный, 2013] HDRip, Mvo

Dracon

119 | 4

1.37 ГБ

В этой теме нет новых непрочитанных сообщений. Воины Терра / Warriors of Terra [ужасы, фантастика, 2006] DVDRip,Dvo

salma3

76 | 3

1.33 ГБ

В этой теме нет новых непрочитанных сообщений. Воины джунглей / Jungle warriors [Боевик, 1984] DVDRip, Avo

salma3

22 | 6

1.37 ГБ

В этой теме нет новых непрочитанных сообщений. Доблестные воины / Warriors of Virtue [Фантастический боевик, 1997] DVDRip, Avo

salma3

2 | 0

702.18 МБ

В этой теме нет новых непрочитанных сообщений. Кровавые воины / Blood Warriors [боевик, драма, 1993] DVDRip, Mvo+Avo

salma3

12 | 3

1.46 ГБ

В этой теме нет новых непрочитанных сообщений. Воины дракона / Dragon Warriors (Маклейн Нельсон, Стивен Шимек) [2015, фэнтези, боевик, комедия, SATRip] mvo

Nickolas3435

225 | 20

1.45 ГБ

В этой теме нет новых непрочитанных сообщений. Воины Сиама / Siyama [Боевик, фантастика, история, 2008] DVDRip, Mvo

salma3

39 | 10

690.3 МБ


Начать новую тему Ответить на тему  [ 1 сообщение ] 




Для Мосгорсуда, Роскомнадзора и рекламодателей:: mosgorsud-torrent[собачка]yandex.ru