Торрент файл
скачать торрент магнет ссылка Добавлен: 19 июл 2016, 13:11
Размер: 1.41 ГБ
Сидеров: 24
Личеров: 11
Статус: (salma3)
Автор

СообщениеДобавлено: 19 июл 2016, 13:11 

Не в сети
Супермодератор
Аватара пользователя
Дата регистрации:
15 фев 2012, 16:44
Возраст: 27
Спасибо: 5143 / 2090
Сообщения: 17495
Лайкни меня / Like for Likes / Please Like Me / Johahaejyo
Страна: Южная Корея
Производство: Liyang Film
Год выпуска: 2016
Жанр: мелодрама, комедия
Продолжительность: 02:02:59
Режиссер: Хён-чжин Пак
В ролях: Ю А-ин, Чхве Джи-у, Кан Ха-ныль, Ким Джу-хёк, Ли Ми-ён, Ли Джон-ын
Описание: Романтический фильм, состоящий из трёх разных историй любви. Три пары и разные обстоятельства...



Перевод: Любительский (двухголосый, закадровый) | Olyushka & Ruben Mendez
Субтитры: нет

Качество: WEB-DLRip
Формат: АVI
Видео кодек: XviD
Аудио кодек: АС3
Видео: 720x304 (2.35:1), 23.976 fps, XviD ~1 440 kbps avg, 0.274 bit/pixel
Аудио: 48.0 kHz, AC3 Dolby Digital, 2/0 (L,R) ch, ~192 kbps
Дата премьеры (мир): 17 февраля 2016

General
Полное имя : Счастливый фейсбук.avi
Формат : AVI
Формат/Информация : Audio Video Interleave
Размер файла : 1,41 Гбайт
Продолжительность : 2 ч. 2 м.
Общий поток : 1641 Кбит/сек
Программа кодирования : VirtualDubMod 1.5.10.3 | (build 2550/release)
Библиотека кодирования : VirtualDubMod build 2550/release
Видео
Идентификатор : 0
Формат : MPEG-4 Visual
Профиль формата : Advanced Simple@L5
Параметр BVOP формата : 1
Параметр QPel формата : Нет
Параметр GMC формата : Без точки перехода
Параметр матрицы формата : Default (H.263)
Идентификатор кодека : XVID
Идентификатор кодека/Подсказка : XviD
Продолжительность : 2 ч. 2 м.
Битрейт : 1440 Кбит/сек
Ширина : 720 пикселей
Высота : 304 пикселя
Соотношение сторон : 2,35:1
Частота кадров : 23,976 (23976/1000) кадра/сек
Цветовое пространство : YUV
Субдискретизация насыщенности : 4:2:0
Битовая глубина : 8 бит
Тип развёртки : Прогрессивная
Метод сжатия : С потерями
Бит/(Пиксели*Кадры) : 0.274
Размер потока : 1,24 Гбайт (88%)
Библиотека кодирования : XviD 1.2.1 (UTC 2008-12-04)
Аудио
Идентификатор : 1
Формат : AC-3
Формат/Информация : Audio Coding 3
Расширение режима : CM (complete main)
Параметр Endianness формата : Big
Идентификатор кодека : 2000
Продолжительность : 2 ч. 2 м.
Вид битрейта : Постоянный
Битрейт : 192 Кбит/сек
Каналы : 2 канала
Расположение каналов : Front: L R
Частота : 48,0 КГц
Частота кадров : 31,250 кадров/сек (1536 spf)
Метод сжатия : С потерями
Размер потока : 169 Мбайт (12%)
Выравнивание : Разделение по промежуткам
Продолжительность промежутка : 42 мс. (1,00 видеокадр)
Время предзагрузки промежутка : 500 мс.



_________________



реклама партнёра


Вернуться к началу
 Профиль Отправить личное сообщение  
 
   Похожие торренты   Автор   Торрент   Размер 
В этой теме нет новых непрочитанных сообщений. Тэли и Толи [Комедия, мелодрама, 2016] WEB-DLRip-AVC

marya111

13 | 2

749.4 МБ

В этой теме нет новых непрочитанных сообщений. Синхронистки (1-4 серии из 4) [комедия, мелодрама, 2016] WEB-DLRip

salma3

1215 | 212

2.33 ГБ

В этой теме нет новых непрочитанных сообщений. Сезонники / Temps [мелодрама, комедия, 2016] WEB-DLRip, Mvo

salma3

606 | 90

743.38 МБ

В этой теме нет новых непрочитанных сообщений. Разводитель / The Matchbreaker [мелодрама, комедия, 2016] WEB-DLRip, Мvo

salma3

245 | 113

1.37 ГБ

В этой теме нет новых непрочитанных сообщений. Разводитель / The Matchbreaker [мелодрама, комедия, 2016] WEB-DLRip, Мvo

salma3

208 | 59

699.91 МБ

В этой теме нет новых непрочитанных сообщений. Танцуй со мной [мелодрама, комедия, музыка, 2016] WEB-DLRip

marya111

400 | 22

1.37 ГБ

В этой теме нет новых непрочитанных сообщений. Москва, я терплю тебя [драма, мелодрама, комедия, 2016] WEB-DLRip

salma3

7719 | 792

1.37 ГБ


Начать новую тему Ответить на тему  [ 1 сообщение ] 




Для Мосгорсуда, Роскомнадзора и рекламодателей:: mosgorsud-torrent[собачка]yandex.ru