Торрент файл
скачать торрент магнет ссылка Добавлен: 16 июл 2016, 12:16
Размер: 1.26 ГБ
Сидеров: 9
Личеров: 5
Статус: (salma3)
Автор

СообщениеДобавлено: 16 июл 2016, 12:16 

В сети
Супермодератор
Аватара пользователя
Дата регистрации:
15 фев 2012, 16:44
Возраст: 27
Спасибо: 5130 / 2089
Сообщения: 17365
Год выхода: 1999
Жанр: драма, семейный
Режиссер: Грег Биман

В ролях: Джозеф Лоуренс, Эндрю Лоуренс, Сьюзэн Уолтерс, М. К. Гейни, Лиэнн Ханли, Робин Томас, Джоли Дженкинс, Стив Ривис, Фреда Фо Шен, Иан Огилви

О фильме:
Майкл отвратительно вел себя со своим кузеном Томом, пока тот гостил у его родителей в Лос-Анджелесе. Настало время ответного визита и родители Майкла отправили своего избалованного сынка на летние каникулы в Монтану, на ферму.
Майкл вынужден терпеть издевательства Тома, который отчаянно мстит своему отвратительному братцу. Майклу не терпится вернуться домой, но совершенно случайно он узнает, что Томи и его мама могут лишиться своей фермы.
Они слишком горды, чтобы принять его финансовую помощь. Майклу придется принять весьма непростое решение…



Производство: США / Hal Roach Studios Inc.
Продолжительность: 01:28:43
Перевод: профессиональный (многоголосый закадровый) [Селена Интернешнл]

Файл
Качество: VHSRip
Формат: AVI
Видео: XviD, 640x480 (4:3), 25.000 fps, 1899 kbps, 0.247 bit/pixel
Аудио: русский, AC3 2.0, 48 kHz, 128 kbps
Формат : AVI
Формат/Информация : Audio Video Interleave
Размер файла : 1,26 Гбайт
Продолжительность : 1 ч. 28 м.
Общий поток : 2037 Кбит/сек
Программа кодирования : VirtualDubMod 1.5.10.2 (build 2540/release)
Библиотека кодирования : VirtualDubMod build 2540/release
Видео
Идентификатор : 0
Формат : MPEG-4 Visual
Профиль формата : Advanced Simple@L5
Параметр BVOP формата : 2
Параметр QPel формата : Нет
Параметр GMC формата : Без точки перехода
Параметр матрицы формата : Default (H.263)
Идентификатор кодека : XVID
Идентификатор кодека/Подсказка : XviD
Продолжительность : 1 ч. 28 м.
Битрейт : 1899 Кбит/сек
Ширина : 640 пикселей
Высота : 480 пикселей
Соотношение сторон : 4:3
Частота кадров : 25,000 кадров/сек
Цветовое пространство : YUV
Субдискретизация насыщенности : 4:2:0
Битовая глубина : 8 бит
Тип развёртки : Прогрессивная
Метод сжатия : С потерями
Бит/(Пиксели*Кадры) : 0.247
Размер потока : 1,18 Гбайт (93%)
Библиотека кодирования : XviD 1.2.1 (UTC 2008-12-04)
Аудио
Идентификатор : 1
Формат : AC-3
Формат/Информация : Audio Coding 3
Расширение режима : CM (complete main)
Параметр Endianness формата : Big
Идентификатор кодека : 2000
Продолжительность : 1 ч. 28 м.
Вид битрейта : Постоянный
Битрейт : 128 Кбит/сек
Каналы : 2 канала
Расположение каналов : Front: L R
Частота : 48,0 КГц
Метод сжатия : С потерями
Размер потока : 81,2 Мбайт (6%)
Выравнивание : Соединение по промежуткам
Продолжительность промежутка : 40 мс. (1,00 видеокадр)
Время предзагрузки промежутка : 512 мс.

Релиз: оцифровка VHS от novikov79


_________________



реклама партнёра


Вернуться к началу
 Профиль Отправить личное сообщение  
 
   Похожие торренты   Автор   Торрент   Размер 
В этой теме нет новых непрочитанных сообщений. Каникулы на ранчо / Horse Sense [драма, семейный, 1999] TVRip-AVC, Mvo

salma3

18 | 7

1.36 ГБ

В этой теме нет новых непрочитанных сообщений. В одно прекрасное лето / Лето на ранчо Койот / Coyote Summer [мелодрама, приключения, семейный, 1995] DVDRip, Avo

salma3

25 | 7

1.46 ГБ

В этой теме нет новых непрочитанных сообщений. Грёзы красавицы / The Cyberstalking [Триллер, фантастика, драма, 1999] VHSRip, Mvo

salma3

11 | 4

650.38 МБ

В этой теме нет новых непрочитанных сообщений. Опасные каникулы [приключения, семейный, 2016] WEB-DLRip

salma3

326 | 20

1.16 ГБ

В этой теме нет новых непрочитанных сообщений. Опасные каникулы [приключения, семейный, 2016] WEB-DL 1080p [iTunes]

salma3

520 | 33

2.67 ГБ

В этой теме нет новых непрочитанных сообщений. Опасные каникулы [Приключения, семейный, комедия, 2016] WEB-DL 720p [iTunes]

salma3

693 | 86

2.34 ГБ

В этой теме нет новых непрочитанных сообщений. Опасные каникулы [приключения, детектив, детский, семейный, комедия, 2016] WEB-DLRip-AVC

salma3

315 | 33

1.35 ГБ


Начать новую тему Ответить на тему  [ 1 сообщение ] 




Для Мосгорсуда, Роскомнадзора и рекламодателей:: mosgorsud-torrent[собачка]yandex.ru