Торрент файл
скачать торрент магнет ссылка Добавлен: 12 июл 2016, 21:44
Размер: 1.51 ГБ
Сидеров: 355
Личеров: 65
Статус: (salma3)
Автор

СообщениеДобавлено: 12 июл 2016, 21:44 

Не в сети
Супермодератор
Аватара пользователя
Дата регистрации:
15 фев 2012, 16:44
Возраст: 27
Спасибо: 6160 / 2122
Сообщения: 31755
Год выхода: 2015
Жанр: драма, комедия, приключения
Режиссер: Мишель Гондри

В ролях: Эндж Д’Аржент, Теофиль Баке, Диана Беснир, Одри Тоту, Винцент Ламуре, Дуглас Броссет, Чарльз Реймонд, Фердинанд Ру-Балм, Марк Деларю

О фильме:
Двое мальчишек решают, что хватит прозябать в школе, где оба слывут лузерами и ботаниками, а пора как следует прокатиться по Франции. Для этой сумасбродной затеи они конструируют не менее безумное средство передвижения – настоящий дом на колесах. Самое главное летнее приключение начинается!



Производство: Франция / Partizan, StudioCanal, Canal+
Продолжительность: 01:43:11
Перевод: любительский (многоголосый закадровый) [Parovoz Production]

Файл
Качество: WEB-DLRip
Формат: AVI
Видео: XviD, 720x432 (5:3), 24.000 fps, 1695 kbps, 0.227 bit/pixel
Аудио: русский, AC3 2.0, 48 kHz, 384 kbps
Формат : AVI
Формат/Информация : Audio Video Interleave
Размер файла : 1,51 Гбайт
Продолжительность : 1 ч. 43 м.
Общий поток : 2089 Кбит/сек
Программа кодирования : VirtualDubMod 1.5.10.2 (build 2540/release)
Библиотека кодирования : VirtualDubMod build 2540/release
Видео
Идентификатор : 0
Формат : MPEG-4 Visual
Профиль формата : Advanced Simple@L5
Параметр BVOP формата : 2
Параметр QPel формата : Нет
Параметр GMC формата : Без точки перехода
Параметр матрицы формата : Выборочная
Идентификатор кодека : XVID
Идентификатор кодека/Подсказка : XviD
Продолжительность : 1 ч. 43 м.
Битрейт : 1695 Кбит/сек
Ширина : 720 пикселей
Высота : 432 пикселя
Соотношение сторон : 5:3
Частота кадров : 24,000 кадра/сек
Цветовое пространство : YUV
Субдискретизация насыщенности : 4:2:0
Битовая глубина : 8 бит
Тип развёртки : Прогрессивная
Метод сжатия : С потерями
Бит/(Пиксели*Кадры) : 0.227
Размер потока : 1,22 Гбайт (81%)
Библиотека кодирования : XviD 1.2.1 (UTC 2008-12-04)
Аудио
Идентификатор : 1
Формат : AC-3
Формат/Информация : Audio Coding 3
Расширение режима : CM (complete main)
Параметр Endianness формата : Big
Идентификатор кодека : 2000
Продолжительность : 1 ч. 43 м.
Вид битрейта : Постоянный
Битрейт : 384 Кбит/сек
Каналы : 2 канала
Расположение каналов : Front: L R
Частота : 48,0 КГц
Метод сжатия : С потерями
Размер потока : 283 Мбайт (18%)
Выравнивание : Разделение по промежуткам
Продолжительность промежутка : 42 мс. (1,00 видеокадр)
Время предзагрузки промежутка : 500 мс.


_________________
Проголосуй за трекер Открытый торрент трекер - RUS-MEDIA.ORG

Проголосуй Открытый торрент трекер - RUS-MEDIA.ORG



реклама партнёра


Вернуться к началу
 Профиль Отправить личное сообщение  
 
   Похожие торренты   Автор   Торрент   Размер 
В этой теме нет новых непрочитанных сообщений. Бензин, еда, жилье / Gas, Food Lodging [драма, мелодрама, 1992] DVDRip, Mvo

salma3

20 | 3

1.32 ГБ

В этой теме нет новых непрочитанных сообщений. Молодость по страховке / Wild Oats [Боевик, драма, комедия, приключения, 2015] WEB-DLRip-AVC, Dub [ iTunes]

marya111

580 | 58

1.37 ГБ

В этой теме нет новых непрочитанных сообщений. Волчонок / Teen Wolf / 5 сезон 1-20 серия из 20 [Мистика, драма, приключения, комедия, 2015] WEB-DLRip, Mvo [VO-production]

salma3

158 | 78

7.33 ГБ

В этой теме нет новых непрочитанных сообщений. Полярные приключения / Polar Adventure [Мультфильм, комедия, приключения, семейный, 2015] WEB-DLRip, dUB [iTunes]

salma3

176 | 17

744.81 МБ

В этой теме нет новых непрочитанных сообщений. Полярные приключения / Polar Adventure [Мультфильм, комедия, приключения, семейный, 2015] WEB-DLRip, dUB [iTunes]

salma3

217 | 74

1.46 ГБ

В этой теме нет новых непрочитанных сообщений. Агенты А.Н.К.Л. / The Man from U.N.C.L.E. (Гай Ричи) [боевик, комедия, приключения, 2015] WEB-DLRip, Avo

Dracon

159 | 8

1.4 ГБ

В этой теме нет новых непрочитанных сообщений. Повторный Киднеппинг / Kidnep (комедия, приключения, семейный, 2015) WEB-DLRip | L1 Данный торрент является блокированным, причина: повторный торрент

marya111

0 | 0

1.46 ГБ


Начать новую тему Ответить на тему  [ 1 сообщение ] 




Для Мосгорсуда, Роскомнадзора и рекламодателей:: mosgorsud-torrent[собачка]yandex.ru