Торрент файл
скачать торрент магнет ссылка Добавлен: 02 июл 2016, 16:02
Размер: 1.45 ГБ
Сидеров: 149
Личеров: 17
Статус: (salma3)
Автор

СообщениеДобавлено: 02 июл 2016, 16:02 

Не в сети
Супермодератор
Аватара пользователя
Дата регистрации:
15 фев 2012, 16:44
Возраст: 27
Спасибо: 5130 / 2089
Сообщения: 17372
Страна: США
Производство: Paramount Pictures
Год выпуска: 1991
Жанр: фэнтези, комедия
Продолжительность: 01:40:00
Режиссер: Терри Хьюз
Авторы сценария: Эзра Литвак, Марджори Шварц
В ролях: Деми Мур, Джефф Дэниелс, Джордж Дзундза, Мэри Стинберген, Фрэнсис МакДорманд, Маргарет Колин, Макс Перлих, Мириам Маргулис, Хелен Хэнфт
Описание: Мяснику из Нью-Йорка по имени Лео Лемке несказанно повезло. Он вернулся с рыбалки из Южной Каролины с потрясающим «уловом», который ему не терпелось продемонстрировать всем друзьям и знакомым — с шикарной молодой женой. Белокурую супругу мясника звали Мариной, и была она девушкой не простой, а ясновидящей. Не было человека, которого встреча с красавицей оставила бы равнодушным: было в ней что-то волшебное, колдовское… Прошло время, и стал наш мясник нервничать и в жене своей сомневаться: уж не ведьма ли она? В дело вступает медицина. Местный психиатр, доктор Алекс Тремор, не верит в сверхъестественные способности Марины, но, сам того не замечая, медленно и верно начинает попадать под власть ее чар...



Перевод: Профессиональный (многоголосый, закадровый) | Paramount Channel
Субтитры: нет

Качество: HDTVRip
Формат: AVI
Видео кодек: XviD
Аудио кодек: АС3
Видео: 720x400 (16:9), 25.000 fps, XviD ~1 880 kbps
Аудио: 48.0 kHz, AC3 Dolby Digital, 2/0 (L,R) ch, ~192 kbps
Дата премьеры (мир): 25 октября 1991
General
Жена мясника - The Butcher's Wife [by Edich2].avi
Format : AVI
Format/Info : Audio Video Interleave
File size : 1.45 GiB
Duration : 1h 40mn
Overall bit rate : 2 082 Kbps
Movie name : Жена мясника - The Butcher's Wife [by Edich2]
Director : Rip by Edich2
Writing application : VirtualDubMod 1.5.10.3 | (build 2550/release)
Video
ID : 0
Format : MPEG-4 Visual
Format profile : Advanced Simple@L5
Format settings, BVOP : 2
Format settings, QPel : No
Format settings, GMC : No warppoints
Format settings, Matrix : Custom
Codec ID : XVID
Codec ID/Hint : XviD
Duration : 1h 40mn
Bit rate : 1 880 Kbps
Width : 720 pixels
Height : 400 pixels
Display aspect ratio : 16:9
Frame rate : 25.000 fps
Color space : YUV
Chroma subsampling : 4:2:0
Bit depth : 8 bits
Scan type : Progressive
Compression mode : Lossy
Bits/(Pixel*Frame) : 0.261
Stream size : 1.31 GiB (90%)
Writing library : XviD 1.2.1 (UTC 2008-12-04)
Audio
ID : 1
Format : AC-3
Format/Info : Audio Coding 3
Mode extension : CM (complete main)
Format settings, Endianness : Big
Codec ID : 2000
Duration : 1h 40mn
Bit rate mode : Constant
Bit rate : 192 Kbps
Channel count : 2 channels
Channel positions : Front: L R
Sampling rate : 48.0 KHz
Bit depth : 16 bits
Compression mode : Lossy
Stream size : 137 MiB (9%)
Alignment : Split accross interleaves
Interleave, duration : 40 ms (1.00 video frame)
Interleave, preload duration : 500 ms



_________________



реклама партнёра


Вернуться к началу
 Профиль Отправить личное сообщение  
 
   Похожие торренты   Автор   Торрент   Размер 
В этой теме нет новых непрочитанных сообщений. Жена мясника / The Butcher's Wife [фэнтези, комедия, 1991] WEB-DL 720p, Mvo

salma3

51 | 11

3.84 ГБ

В этой теме нет новых непрочитанных сообщений. Моя летающая жена / Meng gui ru qin hei she hui / My flying wife [мистика, драма, 1991] DVDRip, Avo+Sub

salma3

8 | 3

1.46 ГБ

В этой теме нет новых непрочитанных сообщений. Трофейная Жена / Третья Жена / Trophy Wife [S01] [Комедия, 2013-2014] WEB-DLRip, Mvo [Fox Life]

salma3

56 | 21

5.29 ГБ

В этой теме нет новых непрочитанных сообщений. Hot Wife / Горячая Жена (2016) WEB-DL

amadei

2 | 1

1.93 ГБ

В этой теме нет новых непрочитанных сообщений. I Have A Wife 39 / У Меня Есть Жена 39 (2016) WEB-DL

amadei

2 | 2

1.45 ГБ

В этой теме нет новых непрочитанных сообщений. Жена астронавта / The Astronaut's Wife [Фантастика, триллер, ужасы, 1999] BDRip 1080p, Dub+Mvo+Sub

salma3

9 | 6

13.71 ГБ

В этой теме нет новых непрочитанных сообщений. Хорошая жена / The Good Wife / 5 сезон 1-22 серии из 22 [драма, криминал, детектив, 2013] WEB-DL 1080p, Mvo [NewStudio]

salma3

0 | 4

36.13 ГБ


Начать новую тему Ответить на тему  [ 1 сообщение ] 




Для Мосгорсуда, Роскомнадзора и рекламодателей:: mosgorsud-torrent[собачка]yandex.ru