Торрент файл
скачать торрент магнет ссылка Добавлен: 08 июн 2016, 14:20
Размер: 1.46 ГБ
Сидеров: 502
Личеров: 92
Статус: (salma3)
Автор

СообщениеДобавлено: 08 июн 2016, 14:20 

Не в сети
Супермодератор
Аватара пользователя
Дата регистрации:
15 фев 2012, 16:44
Возраст: 28
Спасибо: 6594 / 2145
Сообщения: 44279
Год выпуска: 2016
Страна: США
Жанр: боевик

Перевод: Профессиональный многоголосый iTunes]
Продолжительность: 01:41:23

Режиссер: Майкл Джей Уайт

В ролях: Майкл Джей Уайт (Case Walker), Джош Барнетт (Brody James), Джиллиан Уайт (Myca Cruz), Йанин Висмитананда, Эсай Моралес, Стивен Квадрос, Нэйтан Джонс (Braga), Брахим Ачаббаке, Рон Смуренбург, Тони Джа, Сахайак Бунсанакит (Joe Kanarot), Аарон Брамфилд (Boris)



Описание:
Продолжение бойцовской франшизы о состязаниях по смешанным единоборствам и сопутствующих им закулисных страстях. Экс-звезда Кейс Уокер возвращается на ринг за очередной победой, но старой школе в его лице предстоит потягаться с новой школой.



MPAA: R - Лицам до 17 лет обязательно присутствие взрослого

Качество: WEB-DLRip-AVC
Формат: MKV
Видео: AVC, 1024x576 (16:9), 1680 kbps, 23,976 fps, 0,119 bpp
Аудио: русский / AC3 / 5.1 / 48 kHz / 384 kbps / 16 bit ||
Семпл


Релиз от: by White Smoke


General
Unique ID : 252914368954831108176958454759336226218 (0xBE45892097FFA44E8506C109B6C4ADAA)
Complete name : C:Nikogda.ne.zdavaisea.3.2016.WEB-DLRip-AVC.by.White Smoke.R.G.Resident.mkv
Format : Matroska
Format version : Version 4 / Version 2
File size : 1.46 GiB
Duration : 1h 41mn
Overall bit rate : 2 063 Kbps
Encoded date : UTC 2016-06-06 22:26:14
Writing application : mkvmerge v6.8.0 ('Theme for Great Cities') 64bit built on Mar 2 2014 21:34:26
Writing library : libebml v1.3.0 + libmatroska v1.4.1
Video
ID : 1
Format : AVC
Format/Info : Advanced Video Codec
Format profile : High@L4.1
Format settings, CABAC : Yes
Format settings, ReFrames : 12 frames
Codec ID : V_MPEG4/ISO/AVC
Duration : 1h 41mn
Bit rate : 1 680 Kbps
Width : 1 024 pixels
Height : 576 pixels
Display aspect ratio : 16:9
Frame rate : 23.976 fps
Color space : YUV
Chroma subsampling : 4:2:0
Bit depth : 8 bits
Scan type : Progressive
Bits/(Pixel*Frame) : 0.119
Stream size : 1.16 GiB (79%)
Writing library : x264 core 148 r2638 7599210
Encoding settings : cabac=1 / ref=12 / deblock=1:-3:-3 / analyse=0x3:0x113 / me=umh / subme=9 / psy=1 / psy_rd=1.00:0.00 / mixed_ref=1 / me_range=32 / chroma_me=1 / trellis=2 / 8x8dct=1 / cqm=0 / deadzone=21,11 / fast_pskip=1 / chroma_qp_offset=-2 / threads=6 / lookahead_threads=1 / sliced_threads=0 / nr=0 / decimate=0 / interlaced=0 / bluray_compat=0 / constrained_intra=0 / bframes=12 / b_pyramid=2 / b_adapt=2 / b_bias=10 / direct=1 / weightb=0 / open_gop=0 / weightp=2 / keyint=230 / keyint_min=23 / scenecut=40 / intra_refresh=0 / rc_lookahead=40 / rc=2pass / mbtree=1 / bitrate=1680 / ratetol=1.0 / qcomp=0.85 / qpmin=0 / qpmax=69 / qpstep=4 / cplxblur=20.0 / qblur=0.5 / ip_ratio=1.40 / aq=1:1.00
Language : English
Default : Yes
Forced : No
Audio
ID : 2
Format : AC-3
Format/Info : Audio Coding 3
Mode extension : CM (complete main)
Codec ID : A_AC3
Duration : 1h 41mn
Bit rate mode : Constant
Bit rate : 384 Kbps
Channel(s) : 6 channels
Channel positions : Front: L C R, Side: L R, LFE
Sampling rate : 48.0 KHz
Bit depth : 16 bits
Compression mode : Lossy
Stream size : 278 MiB (19%)
Language : Russian
Default : Yes
Forced : No



_________________
Проголосуй за трекер Открытый торрент трекер - RUS-MEDIA.ORG

Проголосуй Открытый торрент трекер - RUS-MEDIA.ORG



реклама партнёра


Вернуться к началу
 Профиль Отправить личное сообщение  
 
   Похожие торренты   Автор   Торрент   Размер 
В этой теме нет новых непрочитанных сообщений. Никогда не сдавайся 3 / Never Back Down: No Surrender [боевик, 2016] WEB-DL 720p, Mvo [iTunes]

salma3

1170 | 120

3.14 ГБ

В этой теме нет новых непрочитанных сообщений. Никогда не сдавайся 3 / Never Back Down: No Surrender [боевик, 2016] WEB-DL 1080p, Mvo [iTunes]

salma3

870 | 103

4.1 ГБ

В этой теме нет новых непрочитанных сообщений. Никогда не сдавайся 3 / Never Back Down: No Surrender [боевик, 2016] DVDRip, Dvo

salma3

1351 | 39

1.37 ГБ

В этой теме нет новых непрочитанных сообщений. Никогда не сдавайся 2 / Never Back Down 2 [боевик, 2011] WEB-DLRip-AVC, Mvo

salma3

19 | 5

1.7 ГБ

В этой теме нет новых непрочитанных сообщений. Никогда не сдавайся 2 / Never Back Down 2 [Боевик, 2011] WEB-DL 720p, Mvo [Лицензия]

salma3

142 | 10

3.48 ГБ

В этой теме нет новых непрочитанных сообщений. Джек Ричер 2: Никогда не возвращайся / Jack Reacher: Never Go Back ( боевик, триллер, криминал, детектив, приключения, 2016) WEBRip 1080p [iTunes]

marya111

307 | 61

4.43 ГБ

В этой теме нет новых непрочитанных сообщений. Джек Ричер 2: Никогда не возвращайся / Jack Reacher: Never Go Back [боевик, триллер, криминал, детектив, приключения, 2016] BD Remux 1080p, Dub+Sub [iTunes]

salma3

32 | 63

26.78 ГБ


Начать новую тему Ответить на тему  [ 1 сообщение ] 




Для Мосгорсуда, Роскомнадзора и рекламодателей:: mosgorsud-torrent[собачка]yandex.ru