Торрент файл
скачать торрент магнет ссылка Добавлен: 03 июн 2016, 14:15
Размер: 1.37 ГБ
Сидеров: 3671
Личеров: 151
Статус: (salma3)
Автор

СообщениеДобавлено: 03 июн 2016, 14:15 

В сети
Супермодератор
Аватара пользователя
Дата регистрации:
15 фев 2012, 16:44
Возраст: 28
Спасибо: 6577 / 2142
Сообщения: 43850
Братья из Гримсби / Grimsby

Год выпуска: 2016
Жанр: боевик, комедия
Режиссер:Луи Летерье

В ролях:Саша Барон Коэн, Марк Стронг, Ребел Уилсон, Пенелопа Крус, Айла Фишер, Габури Сидибе, Аннабелль Уоллис, Иэн МакШейн

Описание:
Сверхсекретная операция, которую выполняет образцовый спецагент, с треском провалена из-за некстати свалившегося на его голову неадекватного брата — оголтелого футбольного фаната и полного беспредельщика. Теперь герою предстоит спасти свою жизнь и вдобавок планету от нависшей над ней угрозы — практически невыполнимая задача в тандеме с вновь приобретенным родственником...



Страна: Великобритания Австралия
Продолжительность: 01:23:11
Перевод: Профессиональный (полное дублирование) [iTunes]

Файл
Качество: HDRip
Формат файла: AVI
Видео кодек: XviD
Аудио кодек: AC3
Видео: 720x304 (2.35:1), 23.976 fps, XviD ~1 570 kbps avg
Аудио: 48 kHz, AC3 Dolby Digital, 3/2 (L,C,R,l,r) + LFE ch, ~384 kbps


General
Format : AVI
Format/Info : Audio Video Interleave
Overall bit rate : 1 959 Kbps
Movie name : Bratia.GremsBEE.2O16.D.HDRip.1400MB
Writing application : VirtualDubMod 1.5.10.3 | (build 2550/release)
Writing library : VirtualDubMod build 2550/release
Copyright : MoreFilms
Video
ID : 0
Format : MPEG-4 Visual
Format profile : Advanced Simple@L5
Format settings, BVOP : 2
Format settings, QPel : No
Format settings, GMC : No warppoints
Format settings, Matrix : Default (MPEG)
Codec ID : XVID
Codec ID/Hint : XviD
Bit rate : 1 570 Kbps
Width : 720 pixels
Height : 304 pixels
Display aspect ratio : 2.35:1
Frame rate : 23.976 fps
Color space : YUV
Chroma subsampling : 4:2:0
Bit depth : 8 bits
Scan type : Progressive
Compression mode : Lossy
Bits/(Pixel*Frame) : 0.224
Stream size : 8.68 MiB (75%)
Writing library : XviD 1.2.1 (UTC 2008-12-04)
Audio
ID : 1
Format : AC-3
Format/Info : Audio Coding 3
Mode extension : CM (complete main)
Format settings, Endianness : Big
Codec ID : 2000
Bit rate mode : Constant
Bit rate : 384 Kbps
Channel(s) : 6 channels
Channel positions : Front: L C R, Side: L R, LFE
Sampling rate : 48.0 KHz
Compression mode : Lossy
Stream size : 2.84 MiB (24%)
Alignment : Split accross interleaves
Interleave, duration : 42 ms (1.01 video frame)
Interleave, preload duration : 500 ms


_________________
Проголосуй за трекер Открытый торрент трекер - RUS-MEDIA.ORG

Проголосуй Открытый торрент трекер - RUS-MEDIA.ORG



реклама партнёра


Вернуться к началу
 Профиль Отправить личное сообщение  
 
   Похожие торренты   Автор   Торрент   Размер 
В этой теме нет новых непрочитанных сообщений. Братья из Гримсби / Grimsby [боевик, комедия, 2016] Blu-ray CEE 1080p, Dub

salma3

39 | 8

25.64 ГБ

В этой теме нет новых непрочитанных сообщений. Братья из Гримсби / Grimsby [Боевик, комедия, 2016] BDRip-AVC, Dub [Лицензия]

marya111

56 | 13

1.76 ГБ

В этой теме нет новых непрочитанных сообщений. Братья из Гримсби / Grimsby [Боевик, комедия, 2016] BDRip 720p, Dub+avo [Лицензия]

marya111

0 | 0

7.79 ГБ

В этой теме нет новых непрочитанных сообщений. Братья из Гримсби / Grimsby [Боевик, комедия, 2016] BDRip 1080p, Dub [Лицензия]

marya111

0 | 0

9.23 ГБ

В этой теме нет новых непрочитанных сообщений. Миссия в Майами / Ride Along 2 [Боевик, комедия, 2016] HDRip, Dub [iTunes ]

Dracon

148 | 17

2.05 ГБ

В этой теме нет новых непрочитанных сообщений. Шпионы по соседству / Keeping Up with the Joneses [комедия, боевик, 2016] HDRip-AVC, Dub [iTunes]

salma3

941 | 69

2.56 ГБ

В этой теме нет новых непрочитанных сообщений. Охотники за привидениями / Ghostbusters [Фантастика, фэнтези, боевик, комедия, 2016] HDRip, dub [КПК] [iTunes]

marya111

138 | 9

524.49 МБ


Начать новую тему Ответить на тему  [ 1 сообщение ] 




Для Мосгорсуда, Роскомнадзора и рекламодателей:: mosgorsud-torrent[собачка]yandex.ru